Гуси-лебеди летят (Александр Муратов) [1974, Драма, TVRip]

 
Автор Сообщение

reversefile ®

Пол:

Стаж: 4 года 5 месяцев

Сообщений: 842

Откуда: ReverseFile.org



Награды: Нет

Торрент-статистика

Создавать темы 11-Авг-2014 06:24

[Цитировать]

Гуси-лебеди летят
Жанр: Драма
Год выпуска: 1974
Продолжительность: 01:13:10

Режиссёр: Александр Муратов
В ролях: Володя Чубарев, Фёдор Стригун, Галина Демчук, Владимир Алексеенко, Валерий Шептекита, Лариса Лукашевич, Лиля Суддя, Михаил Голубович, Павлик Река, Анатолий Кучеренко, Маргарита Кавка, Сережа Воскресенко, Лев Перфилов, Иван Голубов, Иван Матвеев, Борис Савченко, Василий Хорошко, Константин Степанков, Анатолий Барчук, Вилорий Пащенко, Борис Макаров, И. Машталир
Описание: По мотивам одноименной повести Михаила Стельмаха о жизни украинского села после революции.
Фильм расскажет о маленьком мальчике, который живет в деревне. Его дед терпеливо наставляет героя на путь истинный и рассказывает все премудрости жизни. Парень любит общаться со своими друзьями, но его также очень влечет мир литературы. Поэтому он мечтает пробраться в библиотеку соседнего замка и получить доступ к сокровищнице знаний.

Доп. информация: КИНО-ТЕАТР.ru
Награды, Номинации, Фестивали
Приз Союза кинематографистов Украины, специальные дипломы (оператор В.курач, композитор М.Скорик, исполнитель главной роли Володя Чубарев) Республиканский фестиваль детских и юношеских фильмов в Киеве—76; Приз и диплом Союза кинематографистов Молдавии (сценарист М.Стельмах), приз и диплом Союза композиторов Молдавии (композитор М.Скорик) ВКФ—75 в Кишиневе.


Качество видео: TVRip
Формат видео: AVI
Видео: Xvid 688x384 25fps 1289 Kbps
Аудио: MP3 44100Hz stereo 128kbps

MediaInfo

Complete name : Gusi.lebedi.letyat.1974.TVRip.fenixclub.avi
Format : AVI
Format/Info : Audio Video Interleave
File size : 747 MiB
Duration : 1h 13mn
Overall bit rate : 1 427 Kbps
Writing application : VirtualDubModRus 1.5.10.2 (build 2542/release)
Writing library : VirtualDubMod build 2542/release
Video
ID : 0
Format : MPEG-4 Visual
Format profile : Advanced Simple@L5
Format settings, BVOP : Yes
Format settings, QPel : No
Format settings, GMC : No warppoints
Format settings, Matrix : Default (H.263)
Codec ID : XVID
Codec ID/Hint : XviD
Duration : 1h 13mn
Bit rate : 1 289 Kbps
Width : 688 pixels
Height : 384 pixels
Display aspect ratio : 16:9
Frame rate : 25.000 fps
Color space : YUV
Chroma subsampling : 4:2:0
Bit depth : 8 bits
Scan type : Progressive
Compression mode : Lossy
Bits/(Pixel*Frame) : 0.195
Stream size : 675 MiB (90%)
Writing library : XviD 1.2.1 (UTC 2008-12-04)
Audio
ID : 1
Format : MPEG Audio
Format version : Version 1
Format profile : Layer 3
Codec ID : 55
Codec ID/Hint : MP3
Duration : 1h 13mn
Bit rate mode : Constant
Bit rate : 128 Kbps
Channel(s) : 2 channels
Sampling rate : 44.1 KHz
Compression mode : Lossy
Stream size : 67.0 MiB (9%)
Alignment : Split accross interleaves
Interleave, duration : 40 ms (1.00 video frame)
Interleave, preload duration : 500 ms
Writing library : LAME3.99r
Encoding settings : -m s -V 4 -q 2 -lowpass 17 -b 128

Скриншоты




[Профиль] [ЛС]

Создавать темы 06-Авг-2015 22:03 (спустя 11 месяцев 26 дней)

Топик был перенесен из форума Кино СССР в форум Кино СССР
sergej644
 
Кто просматривает тему:

Показать сообщения:    

Текущее время: Сегодня 12:26

Часовой пояс: GMT



Вы не можете начинать темы
Вы не можете отвечать на сообщения
Вы не можете редактировать свои сообщения
Вы не можете удалять свои сообщения
Вы не можете голосовать в опросах
Вы не можете прикреплять файлы к сообщениям
Вы не можете скачивать файлы