Гусарская баллада (1962) BDRip

 
Автор Сообщение

BOSS ®

Пол:

Стаж: 2 года 2 месяца

Сообщений: 3751

Откуда: ODESSA



Награды: 20 (Подробнее)

Mega Releaser 2 (Количество: 1) Mega Releaser 1 (Количество: 1) Top Seeder 4 (Количество: 1)
Торрент-статистика

Создавать темы 13-Сен-2015 04:37

[Цитировать]

Информация о фильме
Название: Гусарская баллада
Год выхода: 1962
Жанр: Комедия, музыкальный, исторический
Режиссёр: Эльдар Рязанов
В ролях: Лариса Голубкина, Юрий Яковлев, Игорь Ильинский, Николай Крючков, Виктор Кольцов, Антоний Ходурский, Татьяна Шмыга, Лев Поляков, Алексей Полевой, Владимир Ширяев, Юрий Белов, Михаил Орлов, Валентин Брылеев, Феликс Яворский, Владимир Трошин, Юрий Киреев, Роман Хомятов, Владимир Граве, Владимир Гусев, Борис Иванов, Лев Любецкий, Юрий Мартынов, Павел Шпрингфельд, Геннадий Юдин, Нина Крачковская, Владимир Балон, Станислав Чекан
О фильме: Исторический анекдот, удачно и к месту рассказанный, всегда найдет благодарных слушателей, а, тем более, зрителей. История девицы-корнета, желающей наравне с мужчинами защищать отечество, была счастливо вспомнена драматургом А. Гладковым, воплощена им в комедии «Давным-давно» и экранизирована Э. Рязановым в 1962 - к 150-летнему юбилею победы над Наполеоном. Все удачно сложилось в этом киноводевиле: и знакомый сюжет, изобилующий приключениями, переодеваниями, интригами, и замечательная, использующая характерные жанровые модели - романса, баллады, гусарской песни - музыка Т. Хренникова, и звездный актерский ансамбль. По мотивам повести Александра Гладкова "Давным-давно"...

Страна: СССР
Студия: Мосфильм
Продолжительность: 01:34:08
Перевод: Не требуется (оригинальный)
Файл
Формат: avi
Качество: BDRip (Blu-ray)
Видео: XviD, 640х464, 23.976fps, 966kbps
Аудио: MPEG Layer 3, 2ch, 48000Hz, 128kbps

MediaInfo

General
Complete name : Gusarskaa.Ballada.1962.O.BDRip.700.MediaClub.CurHaJI.avi
Format : AVI
Format/Info : Audio Video Interleave
File size : 743 MiB
Duration : 1h 34mn
Overall bit rate : 1 104 Kbps
Movie name : Gusarskaa.Ballada.1962.O.BDRip.700.MediaClub.CurHaJI
Writing application : Lavf53.13.0
Writing library : VirtualDub build 35491/release
Video
ID : 0
Format : MPEG-4 Visual
Format profile : Advanced Simple@L5
Format settings, BVOP : 1
Format settings, QPel : No
Format settings, GMC : No warppoints
Format settings, Matrix : Custom
Codec ID : XVID
Codec ID/Hint : XviD
Duration : 1h 34mn
Bit rate : 966 Kbps
Width : 640 pixels
Height : 464 pixels
Display aspect ratio : 1.379
Frame rate : 23.976 fps
Color space : YUV
Chroma subsampling : 4:2:0
Bit depth : 8 bits
Scan type : Progressive
Compression mode : Lossy
Bits/(Pixel*Frame) : 0.136
Stream size : 651 MiB (88%)
Writing library : XviD 1.2.1 (UTC 2008-12-04)
Audio
ID : 1
Format : MPEG Audio
Format version : Version 1
Format profile : Layer 3
Codec ID : 55
Codec ID/Hint : MP3
Duration : 1h 34mn
Bit rate mode : Constant
Bit rate : 128 Kbps
Channel(s) : 2 channels
Sampling rate : 48.0 KHz
Compression mode : Lossy
Stream size : 86.2 MiB (12%)
Alignment : Split accross interleaves
Interleave, duration : 42 ms (1.00 video frame)
Interleave, preload duration : 500 ms
Writing library : L3.99r
Encoding settings : -m s -V 4 -q 2 -lowpass 17 -b 128

Скриншоты

[Профиль] [ЛС]
Показать сообщения:    

Текущее время: Сегодня 10:17

Часовой пояс: GMT



Вы не можете начинать темы
Вы не можете отвечать на сообщения
Вы не можете редактировать свои сообщения
Вы не можете удалять свои сообщения
Вы не можете голосовать в опросах
Вы не можете прикреплять файлы к сообщениям
Вы не можете скачивать файлы