Гусарская баллада (1962) BDRip [720p]

 
Автор Сообщение

sergej644 ®

Пол:

Стаж: 4 года 11 месяцев

Сообщений: 6046

Откуда: Soviet Union



Награды: Нет

Торрент-статистика

Создавать темы 25-Июл-2014 22:25

[Цитировать]

-Гусарская баллада (1962) BDRip [720p]- Производство: СССР
Год выпуска: 1962
Жанр: Мюзикл, Комедия-Режиссер: Эльдар Рязанов
Сценарий: Александр Гладков, Эльдар Рязанов
Актеры: Лариса Голубкина, Юрий Яковлев, Игорь Ильинский, Николай Крючков, Виктор Кольцов, Антоний Ходурский, Татьяна Шмыга, Лев Поляков, Алексей Полевой, Владимир Ширяев, Юрий Белов, Михаил Орлов, Валентин Брылеев, Феликс Яворский-Описание фильма: Исторический анекдот, удачно и к месту рассказанный, всегда найдет благодарных слушателей, а, тем более, зрителей. История девицы-корнета, желающей наравне с мужчинами защищать отечество, была счастливо вспомнена драматургом А. Гладковым, воплощена им в комедии «Давным-давно» и экранизирована Э. Рязановым в 1962 - к 150-летнему юбилею победы над Наполеоном. Все удачно сложилось в этом киноводевиле: и знакомый сюжет, изобилующий приключениями, переодеваниями, интригами, и замечательная, использующая характерные жанровые модели - романса, баллады, гусарской песни - музыка Т. Хренникова, и звездный актерский ансамбль.- -Производство: Мосфильм
Дата мировой премьеры: 7 сентября 1962
Релиз на DVD: 27 июня 2013
Релиз на Blu-Ray: 29 октября 2013-Перевод: Оригинал
Язык субтитров: Отсутствуют
Продолжительность: 01:34:09
Возраст 0+: Для любой зрительской аудитории-Качество видео: BDRip [720p]
Формат: MKV
Видео: MPEG-4 AVC/H.264, 7000 Kbps, 992 x 720
Аудио: Русский AC3 5.1, 640 Kbps, 48.0 KHz-

Blu-ray

MediaInfo

Общее
Полное имя : Гусарская баллада.mkv
Формат : Matroska
Версия формата : Version 1
Размер файла : 5,03 Гбайт
Продолжительность : 1 ч. 34 м.
Общий поток : 7644 Кбит/сек
Дата кодирования : UTC 2013-12-16 19:08:13
Программа кодирования : mkvmerge v2.4.1 ('Use Me') built on Dec 5 2008 18:30:05
Библиотека кодирования : libebml v0.7.7 + libmatroska v0.8.1
Видео
Идентификатор : 1
Формат : AVC
Формат/Информация : Advanced Video Codec
Профиль формата : [url=mailto:High@L4.1]High@L4.1[/url]
Параметр CABAC формата : Да
Параметр ReFrames формата : 10 кадров
Идентификатор кодека : V_MPEG4/ISO/AVC
Продолжительность : 1 ч. 34 м.
Битрейт : 7000 Кбит/сек
Ширина : 992 пикселя
Высота : 720 пикселей
Соотношение сторон : 1,378
Режим частоты кадров : Постоянный
Частота кадров : 23,976 кадра/сек
Цветовое пространство : YUV
Субдискретизация насыщенности : 4:2:0
Битовая глубина : 8 бит
Тип развёртки : Прогрессивная
Бит/(Пиксели*Кадры) : 0.409
Размер потока : 4,51 Гбайт (90%)
Заголовок : Гусарская баллада (1962)
Библиотека кодирования : x264 core 138 r2358 9e941d1
Настройки программы : cabac=1 / ref=10 / deblock=1:-3:-3 / analyse=0x3:0x133 / me=umh / subme=10 / psy=1 / psy_rd=1.00:0.10 / mixed_ref=1 / me_range=48 / chroma_me=1 / trellis=2 / 8x8dct=1 / cqm=0 / deadzone=21,11 / fast_pskip=0 / chroma_qp_offset=-3 / threads=6 / lookahead_threads=1 / sliced_threads=0 / nr=0 / decimate=1 / interlaced=0 / bluray_compat=0 / constrained_intra=0 / bframes=5 / b_pyramid=2 / b_adapt=2 / b_bias=0 / direct=3 / weightb=1 / open_gop=0 / weightp=2 / keyint=240 / keyint_min=22 / scenecut=40 / intra_refresh=0 / rc_lookahead=40 / rc=2pass / mbtree=1 / bitrate=7000 / ratetol=1.0 / qcomp=0.60 / qpmin=10 / qpmax=51 / qpstep=4 / cplxblur=20.0 / qblur=0.5 / ip_ratio=1.40 / aq=1:1.00
Язык : Russian
Аудио
Идентификатор : 2
Формат : AC-3
Формат/Информация : Audio Coding 3
Расширение режима : CM (complete main)
Параметр Endianness формата : Big
Идентификатор кодека : A_AC3
Продолжительность : 1 ч. 34 м.
Вид битрейта : Постоянный
Битрейт : 640 Кбит/сек
Каналы : 6 каналов
Расположение каналов : Front: L C R, Side: L R, LFE
Частота : 48,0 КГц
Битовая глубина : 16 бит
Метод сжатия : С потерями
Размер потока : 431 Мбайт (8%)
Заголовок : AC3 (Оригинал)
Язык : Russian
-Скриншоты:
Полная реставрация изображения и звука. Исходные киноматериалы подготовлены Госфильмофондом России. Покадровая цифровая реставрация изображения, ремастеринг звука и авторинг проведены объединением «Крупный план».
[Профиль] [ЛС]

Создавать темы 06-Авг-2015 22:05 (спустя 1 год)

Топик был перенесен из форума Кино СССР в форум Фильмы (HD Rips | 720p, 1080p)
sergej644
 
Показать сообщения:    

Текущее время: Сегодня 22:42

Часовой пояс: GMT



Вы не можете начинать темы
Вы не можете отвечать на сообщения
Вы не можете редактировать свои сообщения
Вы не можете удалять свои сообщения
Вы не можете голосовать в опросах
Вы не можете прикреплять файлы к сообщениям
Вы не можете скачивать файлы