Грязь / Muck (Стив Уолш) [2015 г., ужасы,HDRip-AVC] VO

 
Автор Сообщение

adeei ®

Пол:

Стаж: 1 год 8 месяцев

Сообщений: 63

Откуда: Россия Иваново



Награды: 3 (Подробнее)

Mega Seeder 1 (Количество: 1) Mega Seeder 3 (Количество: 1) Mega Seeder 2 (Количество: 1)
Торрент-статистика

Создавать темы 23-Мар-2015 09:40

[Цитировать]

Грязь / Muck «The lucky ones are already dead...» Год выпуска: 2015
Страна: США
Студия: Universal Studios Sound Facilities, WithanO Productions
Жанр: ужасы
Продолжительность: 01:38:13
Перевод: Любительский одноголосый (den904)
Субтитры: Английские-Режиссер: Стив Уолш-В ролях: Брайс Дрэйпер, Стефани Даниэльсон, Лаура Джейкобс, Грант Алан, Лорен Франческа, Жаклин Свидберг, Кэйн Ходдер, Лачлан Бьюкэнэн, Джия Скова, Лейла Найт-Описание: Группа друзей оказалась в западне, провалившись в древнее захоронение, на выходе из которого их поджидал убийца — воплощение чистого Зла. Героям предстоит выбрать — противостоять злу и сражаться, или вернуться не самой приятной дорогой обратно…- -Кодек: MPEG-4 AVC (MKV)
Качество: HDRip-AVC
Видео: AVC, 1024x552, 2000 Kbps
Аудио#1: Русский (AC3, 2 ch, 192 Кбит/с)
Аудио#2: Английский (AC3, 6 ch, 448 Кбит/с)-

Скриншоты

Медио инфо

General
Unique ID : 192617707393137853282207181079943232836 (0x90E8D230407F9DEF95D2A201727ABD44)
Complete name : G:ДИСК 2�1.ФИЛЬМЫГрязь Muck (2015)Muck.L1.2015.HDRip-AVC.mkv
Format : Matroska
Format version : Version 4 / Version 2
File size : 1.82 GiB
Duration : 1h 38mn
Overall bit rate : 2 642 Kbps
Movie name : RARBG.COM - Muck.2015.720p.BluRay.x264.DD5.1-RARBG
Encoded date : UTC 2015-03-23 05:47:07
Writing application : mkvmerge v7.7.0 ('Six Voices') 64bit built on Feb 28 2015 23:39:33
Writing library : libebml v1.3.1 + libmatroska v1.4.2
DURATION : 01:37:43.357000000
NUMBER_OF_FRAMES : 1278
NUMBER_OF_BYTES : 39863
_STATISTICS_WRITING_APP : mkvmerge v7.7.0 ('Six Voices') 64bit built on Feb 28 2015 23:39:33
_STATISTICS_WRITING_DATE_UTC : 2015-03-23 05:47:07
_STATISTICS_TAGS : BPS DURATION NUMBER_OF_FRAMES NUMBER_OF_BYTES
Video
ID : 1
Format : AVC
Format/Info : Advanced Video Codec
Format profile : High@L4.1
Format settings, CABAC : Yes
Format settings, ReFrames : 10 frames
Codec ID : V_MPEG4/ISO/AVC
Duration : 1h 38mn
Bit rate : 2 000 Kbps
Width : 1 024 pixels
Height : 552 pixels
Display aspect ratio : 1.85:1
Frame rate mode : Constant
Frame rate : 23.976 fps
Color space : YUV
Chroma subsampling : 4:2:0
Bit depth : 8 bits
Scan type : Progressive
Bits/(Pixel*Frame) : 0.148
Stream size : 1.34 GiB (74%)
Writing library : x264 core 130 r2273 b3065e6
Encoding settings : cabac=1 / ref=10 / deblock=1:-3:-3 / analyse=0x3:0x113 / me=umh / subme=8 / psy=1 / psy_rd=1.00:0.00 / mixed_ref=1 / me_range=32 / chroma_me=1 / trellis=2 / 8x8dct=1 / cqm=0 / deadzone=21,11 / fast_pskip=0 / chroma_qp_offset=-2 / threads=6 / lookahead_threads=3 / sliced_threads=0 / nr=0 / decimate=1 / interlaced=0 / bluray_compat=0 / constrained_intra=0 / bframes=10 / b_pyramid=2 / b_adapt=2 / b_bias=0 / direct=3 / weightb=1 / open_gop=0 / weightp=2 / keyint=240 / keyint_min=23 / scenecut=40 / intra_refresh=0 / rc_lookahead=40 / rc=2pass / mbtree=1 / bitrate=2000 / ratetol=1.0 / qcomp=0.60 / qpmin=0 / qpmax=69 / qpstep=4 / cplxblur=20.0 / qblur=0.5 / ip_ratio=1.40 / aq=1:1.00
Default : Yes
Forced : No
Audio #1
ID : 2
Format : AC-3
Format/Info : Audio Coding 3
Mode extension : CM (complete main)
Format settings, Endianness : Big
Codec ID : A_AC3
Duration : 1h 38mn
Bit rate mode : Constant
Bit rate : 192 Kbps
Channel(s) : 2 channels
Channel positions : Front: L R
Sampling rate : 48.0 KHz
Bit depth : 16 bits
Compression mode : Lossy
Delay relative to video : 2s 0ms
Stream size : 135 MiB (7%)
Default : Yes
Forced : No
Audio #2
ID : 3
Format : AC-3
Format/Info : Audio Coding 3
Mode extension : CM (complete main)
Format settings, Endianness : Big
Codec ID : A_AC3
Duration : 1h 38mn
Bit rate mode : Constant
Bit rate : 448 Kbps
Channel(s) : 6 channels
Channel positions : Front: L C R, Side: L R, LFE
Sampling rate : 48.0 KHz
Bit depth : 16 bits
Compression mode : Lossy
Stream size : 316 MiB (17%)
Default : No
Forced : No
Text
ID : 4
Format : UTF-8
Codec ID : S_TEXT/UTF8
Codec ID/Info : UTF-8 Plain Text
Title : SDH
Language : English
Default : No
Forced : No
Menu
00:00:00.000 : en:Chapter 01
00:08:17.788 : en:Chapter 02
00:21:53.603 : en:Chapter 03
00:26:34.884 : en:Chapter 04
00:34:26.564 : en:Chapter 05
00:40:53.075 : en:Chapter 06
00:49:06.693 : en:Chapter 07
00:54:48.910 : en:Chapter 08
01:01:44.409 : en:Chapter 09
01:11:48.095 : en:Chapter 10
01:20:16.645 : en:Chapter 11
01:29:48.299 : en:Chapter 12
-
[Профиль] [ЛС]
Показать сообщения:    

Текущее время: Сегодня 10:05

Часовой пояс: GMT



Вы не можете начинать темы
Вы не можете отвечать на сообщения
Вы не можете редактировать свои сообщения
Вы не можете удалять свои сообщения
Вы не можете голосовать в опросах
Вы не можете прикреплять файлы к сообщениям
Вы не можете скачивать файлы