Грязь / Filth (2013) BDRip 1080p by msltel | D, A

 
Автор Сообщение

sergej644 ®

Пол:

Стаж: 4 года 11 месяцев

Сообщений: 6043

Откуда: Soviet Union



Награды: Нет

Торрент-статистика

Создавать темы 07-Ноя-2014 14:58

[Цитировать]

Год выпуска: 2013
Страна: Великобритания
Жанр: криминал, драма, комедия
Продолжительность: 01:37:22
Перевод: дублированный, авторский
Субтитры: русские (2 варианта), английские, английские (для слабослышащих, черные и цветные) (все отдельно)
Режиссёр: Джон С. Бейрд
В ролях: Джеймс МакЭвой, Джейми Белл, Джим Бродбент, Имоджен Путс, Иэн де Кестекер, Джоанн Фроггатт, Иман Эллиотт, Ширли Хендерсон, Эдди Марсан, Мартин Компстон
Описание: Главный герой — продажный шотландский полицейский Брюс Робертсон, помешанный на сексе и кокаине. Ему бы надо расследовать убийство, но ему сильно мешают собственные странности, привычка разыгрывать коллег и беготня за девушками. За Робертсоном присматривают его напарник Рэй Леннокс и начальник Боб Тоал. По мотивам романа Ирвина Уэлша.

Качество: BDRip 1080p
Формат: MKV
Видео кодек: H.264
Аудио кодек: AC3, DTS
Видео: 12.2 Mbps,1920x816, 24 кадра/с, 0.324 bpp
Аудио 1: русский, AC3, 384 kbps, 6 ch, 48 kHz [дублированный, R5]
Аудио 2: русский, AC3, 384 kbps, 6 ch, 48 kHz [авторский, Дмитрий Пучков (Гоблин), с ненормативной лексикой]
Аудио 3: русский, AC3, 448 kbps, 6 ch, 48 kHz [авторский, Юрий Сербин]
Отдельные файлы
Аудио: украинский, AC3, 192 kbps, 2 ch, 48 kHz [профессиональный двухголосый]
Аудио: английский, DTS, 768 kbps, 6 ch, 48 kHz [оригинал]
Аудио: английский, AC3, 192 kbps, 2 ch, 48 kHz [комментарий]
Имеются неименованные главы/чаптеры.

MediaInfo

frame I:1189 Avg QP:18.46 size:185712
frame P:25906 Avg QP:19.47 size:106621
frame B:113121 Avg QP:21.52 size: 54035
Общее
Уникальный идентификатор : 178414201471877320428885955693372143941 (0x86395347A362C6118D3AD20C1E5E7945)
Полное имя : D:VideoGrjaz.2013.BDRip.1080pGrjaz.2013.BDRip.1080p.mkv
Формат : Matroska
Версия формата : Version 4 / Version 2
Размер файла : 9,30 Гбайт
Продолжительность : 1 ч. 37 м.
Общий поток : 13,7 Мбит/сек
Дата кодирования : UTC 2014-11-07 07:50:37
Программа кодирования : mkvmerge v7.3.0 ('Nouages') 64bit built on Oct 22 2014 18:53:34
Библиотека кодирования : libebml v1.3.0 + libmatroska v1.4.1
DURATION : 01:37:22.560000000
NUMBER_OF_FRAMES : 182580
NUMBER_OF_BYTES : 327183360
_STATISTICS_WRITING_APP : mkvmerge v7.3.0 ('Nouages') 64bit built on Oct 22 2014 18:53:34
_STATISTICS_WRITING_DATE_UTC : 2014-11-07 07:50:37
_STATISTICS_TAGS : BPS DURATION NUMBER_OF_FRAMES NUMBER_OF_BYTES
Видео
Идентификатор : 1
Формат : AVC
Формат/Информация : Advanced Video Codec
Профиль формата : High@L4.1
Параметр CABAC формата : Да
Параметр ReFrames формата : 4 кадра
Идентификатор кодека : V_MPEG4/ISO/AVC
Продолжительность : 1 ч. 37 м.
Битрейт : 12,2 Мбит/сек
Ширина : 1920 пикселей
Высота : 816 пикселей
Соотношение сторон : 2,35:1
Режим частоты кадров : Постоянный
Частота кадров : 24,000 кадра/сек
Цветовое пространство : YUV
Субдискретизация насыщенности : 4:2:0
Битовая глубина : 8 бит
Тип развёртки : Прогрессивная
Бит/(Пиксели*Кадры) : 0.324
Размер потока : 8,29 Гбайт (89%)
Заголовок : BDRip -- STarankov
Библиотека кодирования : x264 core 142 r2431 ac76440
Настройки программы : cabac=1 / ref=4 / deblock=1:-1:-1 / analyse=0x3:0x113 / me=umh / subme=10 / psy=1 / psy_rd=1.00:0.15 / mixed_ref=1 / me_range=32 / chroma_me=1 / trellis=2 / 8x8dct=1 / cqm=0 / deadzone=21,11 / fast_pskip=1 / chroma_qp_offset=-3 / threads=6 / lookahead_threads=1 / sliced_threads=0 / nr=0 / decimate=1 / interlaced=0 / bluray_compat=0 / constrained_intra=0 / bframes=8 / b_pyramid=2 / b_adapt=2 / b_bias=0 / direct=3 / weightb=1 / open_gop=0 / weightp=2 / keyint=230 / keyint_min=23 / scenecut=40 / intra_refresh=0 / rc_lookahead=40 / rc=crf / mbtree=0 / crf=20.0 / qcomp=0.60 / qpmin=0 / qpmax=69 / qpstep=4 / vbv_maxrate=50000 / vbv_bufsize=62500 / crf_max=0.0 / nal_hrd=none / filler=0 / ip_ratio=1.40 / pb_ratio=1.30 / aq=1:1.00
Язык : English
Default : Да
Forced : Нет
DURATION : 01:37:22.334000000
NUMBER_OF_FRAMES : 140216
NUMBER_OF_BYTES : 9095431461
_STATISTICS_WRITING_APP : mkvmerge v7.3.0 ('Nouages') 64bit built on Oct 22 2014 18:53:34
_STATISTICS_WRITING_DATE_UTC : 2014-11-07 07:50:37
_STATISTICS_TAGS : BPS DURATION NUMBER_OF_FRAMES NUMBER_OF_BYTES
Аудио #1
Идентификатор : 2
Формат : AC-3
Формат/Информация : Audio Coding 3
Расширение режима : CM (complete main)
Параметр Endianness формата : Big
Идентификатор кодека : A_AC3
Продолжительность : 1 ч. 37 м.
Вид битрейта : Постоянный
Битрейт : 384 Кбит/сек
Каналы : 6 каналов
Расположение каналов : Front: L C R, Side: L R, LFE
Частота : 48,0 КГц
Битовая глубина : 16 бит
Метод сжатия : С потерями
Размер потока : 267 Мбайт (3%)
Заголовок : DUB (R5)
Язык : Russian
Default : Да
Forced : Нет
Аудио #2
Идентификатор : 3
Формат : AC-3
Формат/Информация : Audio Coding 3
Расширение режима : CM (complete main)
Параметр Endianness формата : Big
Идентификатор кодека : A_AC3
Продолжительность : 1 ч. 37 м.
Вид битрейта : Постоянный
Битрейт : 384 Кбит/сек
Каналы : 6 каналов
Расположение каналов : Front: L C R, Side: L R, LFE
Частота : 48,0 КГц
Битовая глубина : 16 бит
Метод сжатия : С потерями
Размер потока : 267 Мбайт (3%)
Заголовок : AVO (Дмитрий Пучков (Гоблин))
Язык : Russian
Default : Нет
Forced : Нет
Аудио #3
Идентификатор : 4
Формат : AC-3
Формат/Информация : Audio Coding 3
Расширение режима : CM (complete main)
Параметр Endianness формата : Big
Идентификатор кодека : A_AC3
Продолжительность : 1 ч. 37 м.
Вид битрейта : Постоянный
Битрейт : 448 Кбит/сек
Каналы : 6 каналов
Расположение каналов : Front: L C R, Side: L R, LFE
Частота : 48,0 КГц
Битовая глубина : 16 бит
Метод сжатия : С потерями
Размер потока : 312 Мбайт (3%)
Заголовок : AVO (Юрий Сербин)
Язык : Russian
Default : Нет
Forced : Нет
Меню
00:00:00.000 : :Chapter 01
00:08:15.500 : :Chapter 02
00:15:56.790 : :Chapter 03
00:24:38.665 : :Chapter 04
00:32:36.125 : :Chapter 05
00:40:55.916 : :Chapter 06
00:48:00.457 : :Chapter 07
00:56:09.000 : :Chapter 08
01:03:43.833 : :Chapter 09
01:14:07.707 : :Chapter 10
01:19:14.957 : :Chapter 11
01:28:19.165 : :Chapter 12
Общее
Полное имя : D:VideoGrjaz.2013.BDRip.1080pGrjaz.2013.Commentary.eng.ac3
Формат : AC-3
Формат/Информация : Audio Coding 3
Размер файла : 134 Мбайт
Продолжительность : 1 ч. 37 м.
Режим общего битрейта : Постоянный
Общий поток : 192 Кбит/сек
Аудио
Формат : AC-3
Формат/Информация : Audio Coding 3
Расширение режима : CM (complete main)
Параметр Endianness формата : Big
Продолжительность : 1 ч. 37 м.
Вид битрейта : Постоянный
Битрейт : 192 Кбит/сек
Каналы : 2 канала
Расположение каналов : Front: L R
Частота : 48,0 КГц
Битовая глубина : 16 бит
Метод сжатия : С потерями
Размер потока : 134 Мбайт (100%)
Общее
Полное имя : D:VideoGrjaz.2013.BDRip.1080pGrjaz.2013.DVO.ukr.ac3
Формат : AC-3
Формат/Информация : Audio Coding 3
Размер файла : 134 Мбайт
Продолжительность : 1 ч. 37 м.
Режим общего битрейта : Постоянный
Общий поток : 192 Кбит/сек
Аудио
Формат : AC-3
Формат/Информация : Audio Coding 3
Расширение режима : CM (complete main)
Параметр Endianness формата : Big
Продолжительность : 1 ч. 37 м.
Вид битрейта : Постоянный
Битрейт : 192 Кбит/сек
Каналы : 2 канала
Расположение каналов : Front: L R
Частота : 48,0 КГц
Битовая глубина : 16 бит
Метод сжатия : С потерями
Размер потока : 134 Мбайт (100%)
Общее
Полное имя : D:VideoGrjaz.2013.BDRip.1080pGrjaz.2013.eng.SDH.srt
Формат : SubRip
Размер файла : 105 Кбайт
Текст
Формат : SubRip
Метод сжатия : Без потерь
Общее
Полное имя : D:VideoGrjaz.2013.BDRip.1080pGrjaz.2013.eng.srt
Формат : SubRip
Размер файла : 96,8 Кбайт
Текст
Формат : SubRip
Метод сжатия : Без потерь
Общее
Полное имя : D:VideoGrjaz.2013.BDRip.1080pGrjaz.2013.Original.eng.dts
Формат : DTS
Формат/Информация : Digital Theater Systems
Размер файла : 535 Мбайт
Продолжительность : 1 ч. 37 м.
Режим общего битрейта : Постоянный
Общий поток : 768 Кбит/сек
Аудио
Формат : DTS
Формат/Информация : Digital Theater Systems
Режим : 16
Параметр Endianness формата : Big
Продолжительность : 1 ч. 37 м.
Вид битрейта : Постоянный
Битрейт : 768 Кбит/сек
Каналы : 6 каналов
Расположение каналов : Front: L C R, Side: L R, LFE
Частота : 48,0 КГц
Битовая глубина : 24 бит
Метод сжатия : С потерями
Размер потока : 535 Мбайт (100%)
Общее
Полное имя : D:VideoGrjaz.2013.BDRip.1080pGrjaz.2013.rus1.srt
Формат : SubRip
Размер файла : 126 Кбайт
Текст
Формат : SubRip
Метод сжатия : Без потерь
Общее
Полное имя : D:VideoGrjaz.2013.BDRip.1080pGrjaz.2013.rus2.srt
Формат : SubRip
Размер файла : 132 Кбайт
Текст
Формат : SubRip
Метод сжатия : Без потерь
Общее
Полное имя : D:VideoGrjaz.2013.BDRip.1080pGrjaz.2013.SDH.colored.eng.srt
Формат : SubRip
Размер файла : 110 Кбайт
Текст
Формат : SubRip
Метод сжатия : Без потерь

Скриншоты (увеличить)

[Профиль] [ЛС]
Показать сообщения:    

Текущее время: Сегодня 00:32

Часовой пояс: GMT



Вы не можете начинать темы
Вы не можете отвечать на сообщения
Вы не можете редактировать свои сообщения
Вы не можете удалять свои сообщения
Вы не можете голосовать в опросах
Вы не можете прикреплять файлы к сообщениям
Вы не можете скачивать файлы