Грязное дело / Hustle (1975) HDTVRip от GeneralFilm | P

 
Автор Сообщение

sergej644 ®

Пол:

Стаж: 4 года 11 месяцев

Сообщений: 6041

Откуда: Soviet Union



Награды: Нет

Торрент-статистика

Создавать темы 06-Ноя-2014 08:43

[Цитировать]

Название: Грязное дело
Оригинальное название: Hustle
Год выхода: 1975
Жанр: Триллер, драма, криминал, детектив
Выпущено: США, Churchill Service Company, Paramount Pictures, RoBurt, Zeeuwse Maatschappij N.V.
Режиссер: Роберт Олдрич
В ролях: Бёрт Рейнолдс, Катрин Денёв, Бен Джонсон, Пол Уинфилд, Айлин Бреннан, Эдди Альберт, Эрнест Боргнайн, Кэтрин Бах, Джек Картер, Джеймс Хэмптон
О фильме: Лейтенант Фил Гейнс - опытный лос-анжелесский детектив, расследующий темную запутанную историю убийства стриптизерши. Он влюблен в дорогую и очень красивую девушку по вызову, один из высокопоставленных клиентов которой является главным подозреваемым. Расследование еще больше осложняется тем, что неуравновешенный отец жертвы решает сам найти преступника.-
Качество: HDTVRip исходник (HDTV 1080i)
Видео: XviD, 1647 Кбит/с, 720x400
Аудио: Русский, AC3, 2 ch, 192 Кбит/с
Продолжительность: 01:53:19
Перевод: Профессиональный (многоголосый)
Спасибо за предоставленный исходник 1234plz

MediaInfo

General
Complete name : G:Hustle 1975 HDTVRip 1.46.avi
Format : AVI
Format/Info : Audio Video Interleave
File size : 1.46 GiB
Duration : 1h 53mn
Overall bit rate : 1 850 Kbps
Writing application : VirtualDubModRus 1.5.10.2 (build 2542/release)
Writing library : VirtualDubMod build 2542/release
Video
ID : 0
Format : MPEG-4 Visual
Format profile : Advanced Simple@L5
Format settings, BVOP : 2
Format settings, QPel : No
Format settings, GMC : No warppoints
Format settings, Matrix : Default (H.263)
Codec ID : XVID
Codec ID/Hint : XviD
Duration : 1h 53mn
Bit rate : 1 648 Kbps
Width : 720 pixels
Height : 400 pixels
Display aspect ratio : 16:9
Frame rate : 25.000 fps
Color space : YUV
Chroma subsampling : 4:2:0
Bit depth : 8 bits
Scan type : Progressive
Compression mode : Lossy
Bits/(Pixel*Frame) : 0.229
Stream size : 1.30 GiB (89%)
Writing library : XviD 57
Audio
ID : 1
Format : AC-3
Format/Info : Audio Coding 3
Mode extension : CM (complete main)
Format settings, Endianness : Big
Codec ID : 2000
Duration : 1h 53mn
Bit rate mode : Constant
Bit rate : 192 Kbps
Channel(s) : 2 channels
Channel positions : Front: L R
Sampling rate : 48.0 KHz
Bit depth : 16 bits
Compression mode : Lossy
Stream size : 156 MiB (10%)
Alignment : Split accross interleaves
Interleave, duration : 40 ms (1.00 video frame)
Interleave, preload duration : 500 ms

Скриншоты

Релиз от:
[Профиль] [ЛС]

Создавать темы 06-Авг-2015 23:05 (спустя 9 месяцев)

Топик был перенесен из форума Фильмы до 2014 года в форум Классика зарубежного кино
sergej644
 
Кто просматривает тему:

Форум Тема Автор Размер
Фильмы 2016 года Грязная ложь / Dirty Lies (2016) DVDRip | L2 достали все 1.37 GB
Фильмы 2016 года Грязная ложь / Dirty Lies (Джэми Маршалл / Jamie Marshall) [2016, США, Боевик, триллер, драма, криминал, DVDRip] DVO TorrentFilm 1.37 GB
R.G.TorrentFilm Video Грязная ложь / Dirty Lies (Джэми Маршалл / Jamie Marshall) [2016, США, Боевик, триллер, драма, криминал, DVDRip] DVO (Parovoz Production) Один 777 746 MB
Документальные HD Грязные войны / Dirty Wars (Рик Роули / Rick Rowley) [2013, документальный, BDRip 720p] TorrentFilm 4.36 GB
Фильмы (HD DVD, Blu-ray и BDRemux) Грязные прелести / Dirty Pretty Things (2002) BDRemux 1080p | D, P, P2, A Russian Mafia 19.02 GB
Фильмы (HD Rips | 720p, 1080p) Грязные прелести / Dirty Pretty Things (2002) BDRip 1080p | D, P, P2, A Russian Mafia 9.09 GB
Фильмы (HD Rips | 720p, 1080p) Приключения Джо Грязнули 2 / Joe Dirt 2: Beautiful Loser (2015) BDRip 720p | Extended cut | iTunes достали все 5.76 GB
Фильмы (HD DVD, Blu-ray и BDRemux) Приключения Джо Грязнули 2 / Joe Dirt 2: Beautiful Loser (2015) Blu-ray | Extended cut | iTunes Russian Mafia 25.55 GB
Показать сообщения:    

Текущее время: Сегодня 20:59

Часовой пояс: GMT



Вы не можете начинать темы
Вы не можете отвечать на сообщения
Вы не можете редактировать свои сообщения
Вы не можете удалять свои сообщения
Вы не можете голосовать в опросах
Вы не можете прикреплять файлы к сообщениям
Вы не можете скачивать файлы