Группа «Фристайл» 25 лет на сцене (2014) SATRip

 
Автор Сообщение

BOSS ®

Пол:

Стаж: 2 года 2 месяца

Сообщений: 3751

Откуда: ODESSA



Награды: 20 (Подробнее)

Top Keeper 4 (Количество: 1) Top Seeder 5 (Количество: 1) Mega Releaser 1 (Количество: 1)
Торрент-статистика

Создавать темы 22-Янв-2016 05:44

[Цитировать]

Исполнитель/Группа: Группа «Фристайл»
Жанр: POP
Год выпуска: 2014
Продолжительность: 01:34:39

Треклист

1. Фристайл - Желтые розы.
2. Фристайл & Нина Кирсо - Фонари.
3. Фристайл & Нина Кирсо - Московская любовь.
4. Фристайл & Нина Кирсо - Капелька.
5. Фристайл & Сергей Кузнецов - Я нарисую.
6. Фристайл & Сергей Кузнецов - Вот и все, прости.
7. Фристайл & Нина Кирсо - С днем рождения Мама.
8. Фристайл & Сергей Кузнецов - Белая вьюга.
9. Фристайл & Нина Кирсо - Падали снежинки.
10.Фристайл & Нина Кирсо - Цветет калина.
11.Фристайл & Нина Кирсо - Давайте выпьем за мужчин.
12.Фристайл & Нина Кирсо - Целуй меня горячей.
13.Фристайл & Нина Кирсо - Три сосны.
14.Фристайл & Сергей Кузнецов - Белая акация.
15.Фристайл & Нина Кирсо - Ой,чий то кінь стоїть.
16.Фристайл & Нина Кирсо - Кораблик любви.
17.Фристайл & Сергей Кузнецов - Листок календаря.
18.Фристайл & Нина Кирсо - А я тебя любила.
19.Фристайл & Сергей Кузнецов - Метелица.
20.Фристайл & Сергей Кузнецов - Ах,какая женщина.
Анатолий Розанов-руководитель,автор музыки
Нина Кирсо-вокал
Сергей Кузнецов-вокал,клавишные,автор текстов
Юрий Савченко-клавишные,аранжировка,вокал
Сергей Ганжа-гитара,вокал
Юрий Зирка-ударные

Доп. информация Собрано из двух версий концерта,показанных на разных каналах.Удалены выступления гостей и подводки конферансье.
Этот релиз отличается от выложенного ранее на трекере лучшим качеством(нет рывков на видео во время движения камеры).
Формат: MKV
Качество: SATRip
Видео кодек: H.264
Аудио кодек: AAC
Видео: H.264(4:3) 720 X 576 2 096 Kbps 25.000 fps
Аудио: AAC 2 channels 192 Kbps 44.1 KHz

MI

Полное имя : D:Freestyle.mkv
Формат : Matroska
Версия формата : Version 4 / Version 2
Размер файла : 1,52 Гбайт
Продолжительность : 1 ч. 34 м.
Общий поток : 2296 Кбит/сек
Дата кодирования : UTC 2016-01-10 15:15:25
Программа кодирования : mkvmerge v8.3.0 ('Over the Horizon') 64bit
Библиотека кодирования : libebml v1.3.1 + libmatroska v1.4.2
Видео
Идентификатор : 1
Формат : AVC
Формат/Информация : Advanced Video Codec
Профиль формата : High@L3
Параметр CABAC формата : Да
Параметр ReFrames формата : 2 кадра
Параметр GOP формата : M=3, N=13
Идентификатор кодека : V_MPEG4/ISO/AVC
Продолжительность : 1 ч. 34 м.
Битрейт : 2104 Кбит/сек
Ширина : 720 пикселей
Высота : 576 пикселей
Соотношение сторон : 4:3
Режим частоты кадров : Постоянный
Частота кадров : 25,000 кадров/сек
Стандарт вещания : PAL
Цветовое пространство : YUV
Субдискретизация насыщенности : 4:2:0
Битовая глубина : 8 бит
Тип развёртки : MBAFF
Бит/(Пиксели*Кадры) : 0.203
Размер потока : 1,39 Гбайт (92%)
Язык : English
Default : Да
Forced : Нет
Аудио
Идентификатор : 2
Формат : AAC
Формат/Информация : Advanced Audio Codec
Профиль формата : LC
Идентификатор кодека : A_AAC
Продолжительность : 1 ч. 34 м.
Битрейт : 192 Кбит/сек
Каналы : 2 канала
Расположение каналов : Front: L R
Частота : 44,1 КГц
Частота кадров : 43,066 кадра/сек (1024 spf)
Метод сжатия : С потерями
Размер потока : 128 Мбайт (8%)
Язык : English
Default : Да
Forced : Нет

Скриншоты

[Профиль] [ЛС]
Показать сообщения:    

Текущее время: Сегодня 06:21

Часовой пояс: GMT



Вы не можете начинать темы
Вы не можете отвечать на сообщения
Вы не можете редактировать свои сообщения
Вы не можете удалять свои сообщения
Вы не можете голосовать в опросах
Вы не можете прикреплять файлы к сообщениям
Вы не можете скачивать файлы