(Шансон) Группа «БУТЫРКА» - Серия «SUPER HITS COLLECTION. 20 лучших песен» - 2013, FLAC (image+.cue), lossless

 
Автор Сообщение

sergej644 ®

Пол:

Стаж: 4 года 11 месяцев

Сообщений: 6038

Откуда: Soviet Union



Награды: Нет

Торрент-статистика

Создавать темы 14-Июл-2015 04:34

[Цитировать]

Группа «БУТЫРКА» / Серия «SUPER HITS COLLECTION. 20 лучших песен»
Жанр: Шансон
Страна-производитель диска: Россия
Год издания: 2013
Издатель (лейбл): Классик Компани
Номер по каталогу: СС CD 08/13
Страна: Россия
Аудиокодек: FLAC (*.flac)
Тип рипа: image+.cue
Битрейт аудио: lossless
Продолжительность: 01:12:54
Источник (релизер): STOJAK
Наличие сканов в содержимом раздачи: да (PNG)
Треклист:
01. "Запахло весной (В. Ждамиров - О. Симонов)"
02. "По этапу (О. Симонов)"
03. "Не трогай осень (В. Ждамиров - О. Симонов)"
04. "Весточка (В. Ждамиров - О. Симонов)"
05. "Не крутите глобус (В. Ждамиров - О. Симонов)"
06. "Два полюса (В. Ждамиров - О. Симонов)"
07. "Лето в форточку (В. Ждамиров - О. Симонов)"
08. "А для вас я никто (В. Ждамиров - О. Симонов)"
09. "Слёзы осени (В. Ждамиров - О. Симонов)"
10. "Сорвутся голуби (В. Ждамиров - О. Симонов)"
11. "Шарик (В. Ждамиров - О. Симонов)"
12. "Гулял сентябрь (В. Ждамиров - О. Симонов)"
13. "Тает снег (О. Симонов)"
14. "Сероглазая шалунья (Народная в обработке Группы «БУТЫРКА»)"
15. "Твоё тепло (В. Ждамиров - О. Симонов)"
16. "Девчонка с центра (В. Ждамиров - О. Симонов)"
17. "Чечёточка (В. Ждамиров - О. Симонов)"
18. "Икона (В. Ждамиров - О. Симонов)"
19. "Зелёный дом (В. Ждамиров - О. Симонов)"
20. "Небеса (В. Ждамиров - О. Симонов)"

Отчёт EAC об извлечении, выполненном 4. марта 2013, 7:49

Exact Audio Copy V1.0 beta 2 from 29. April 2011
Отчёт EAC об извлечении, выполненном 4. марта 2013, 7:49
Группа «БУТЫРКА» / Серия «SUPER HITS COLLECTION. 20 лучших песен»
Дисковод: COMBO   IDE5216CO   Adapter: 0  ID: 0
Режим чтения                 : Достоверность
Использование точного потока : Да
Отключение кэша аудио        : Да
Использование указателей C2  : Нет
Коррекция смещения при чтении                     : 6
Способность читать области Lead-in и Lead-out     : Нет
Заполнение пропущенных сэмплов тишиной            : Да
Удаление блоков с тишиной в начале и конце        : Нет
При вычислениях CRC использовались нулевые сэмплы : Да
Интерфейс                                         : Встроенный Win32-интерфейс для Win NT/2000
Выходной формат : Внутренние WAV-операции
Формат сэмплов  : 44.100 Гц; 16 бит; стерео
TOC извлечённого CD
     Трек |   Старт  | Длительность | Начальный сектор | Конечный сектор
    ---------------------------------------------------------------------
       1  |  0:00.00 |    4:10.10   |           0      |      18759
       2  |  4:10.10 |    2:35.74   |       18760      |      30458
       3  |  6:46.09 |    5:45.56   |       30459      |      56389
       4  | 12:31.65 |    5:29.04   |       56390      |      81068
       5  | 18:00.69 |    3:37.10   |       81069      |      97353
       6  | 21:38.04 |    4:08.47   |       97354      |     116000
       7  | 25:46.51 |    4:01.63   |      116001      |     134138
       8  | 29:48.39 |    2:33.31   |      134139      |     145644
       9  | 32:21.70 |    3:09.46   |      145645      |     159865
      10  | 35:31.41 |    3:03.26   |      159866      |     173616
      11  | 38:34.67 |    3:05.52   |      173617      |     187543
      12  | 41:40.44 |    3:01.72   |      187544      |     201190
      13  | 44:42.41 |    2:53.72   |      201191      |     214237
      14  | 47:36.38 |    3:01.37   |      214238      |     227849
      15  | 50:38.00 |    4:11.54   |      227850      |     246728
      16  | 54:49.54 |    2:56.62   |      246729      |     259990
      17  | 57:46.41 |    2:40.44   |      259991      |     272034
      18  | 60:27.10 |    3:59.71   |      272035      |     290030
      19  | 64:27.06 |    3:47.36   |      290031      |     307091
      20  | 68:14.42 |    4:38.73   |      307092      |     328014
Характеристики диапазона извлечения и сообщения об ошибках
Выбранный диапазон
     Имя файла E:\ШАНСОН\SCHANSON [SBORNIKI] LOSSLESS\СЕРИЯ «SUPER HITS COLLECTION» (с) 2012-2014 [20CD]\[2013] Группа «БУТЫРКА» «SUPER HITS COLLECTION. 20 лучших песен»\Группа «БУТЫРКА» - Серия «SUPER HITS COLLECTION. 20 лучших песен».wav
     Пиковый уровень 100.0 %
     Скорость извлечения 2.3 X
     Качество диапазона 99.9 %
     CRC теста C38F18E4
     CRC копии C38F18E4
     Копирование... OK
Ошибок не произошло
AccurateRip: сводка
Трек  1  отсутствует в базе данных
Трек  2  отсутствует в базе данных
Трек  3  отсутствует в базе данных
Трек  4  отсутствует в базе данных
Трек  5  отсутствует в базе данных
Трек  6  отсутствует в базе данных
Трек  7  отсутствует в базе данных
Трек  8  отсутствует в базе данных
Трек  9  отсутствует в базе данных
Трек 10  отсутствует в базе данных
Трек 11  отсутствует в базе данных
Трек 12  отсутствует в базе данных
Трек 13  отсутствует в базе данных
Трек 14  отсутствует в базе данных
Трек 15  отсутствует в базе данных
Трек 16  отсутствует в базе данных
Трек 17  отсутствует в базе данных
Трек 18  отсутствует в базе данных
Трек 19  отсутствует в базе данных
Трек 20  отсутствует в базе данных
Ни одного трека нет в базе AccurateRip
Конец отчёта
==== Контрольная сумма отчёта FE6545684CD8109C6B3A1E5956E1A3BEC4D2D3BA0FF9B00405C49030B3D91DB3 ====

Содержание индексной карты (.CUE)

REM GENRE Chanson
REM DATE 2013
REM DISCID 1F111514
REM COMMENT "ExactAudioCopy v1.0b2"
PERFORMER "Группа «БУТЫРКА»"
TITLE "Серия «SUPER HITS COLLECTION. 20 лучших песен»"
FILE "Группа «БУТЫРКА» - Серия «SUPER HITS COLLECTION. 20 лучших песен».flac" WAVE
  TRACK 01 AUDIO
    TITLE "Запахло весной (В. Ждамиров - О. Симонов)"
    PERFORMER "Группа «БУТЫРКА»"
    INDEX 01 00:00:00
  TRACK 02 AUDIO
    TITLE "По этапу (О. Симонов)"
    PERFORMER "Группа «БУТЫРКА»"
    INDEX 00 04:09:15
    INDEX 01 04:10:10
  TRACK 03 AUDIO
    TITLE "Не трогай осень (В. Ждамиров - О. Симонов)"
    PERFORMER "Группа «БУТЫРКА»"
    INDEX 00 06:45:14
    INDEX 01 06:46:09
  TRACK 04 AUDIO
    TITLE "Весточка (В. Ждамиров - О. Симонов)"
    PERFORMER "Группа «БУТЫРКА»"
    INDEX 00 12:30:70
    INDEX 01 12:31:65
  TRACK 05 AUDIO
    TITLE "Не крутите глобус (В. Ждамиров - О. Симонов)"
    PERFORMER "Группа «БУТЫРКА»"
    INDEX 00 17:59:74
    INDEX 01 18:00:69
  TRACK 06 AUDIO
    TITLE "Два полюса (В. Ждамиров - О. Симонов)"
    PERFORMER "Группа «БУТЫРКА»"
    INDEX 00 21:37:09
    INDEX 01 21:38:04
  TRACK 07 AUDIO
    TITLE "Лето в форточку (В. Ждамиров - О. Симонов)"
    PERFORMER "Группа «БУТЫРКА»"
    INDEX 00 25:45:56
    INDEX 01 25:46:51
  TRACK 08 AUDIO
    TITLE "А для вас я никто (В. Ждамиров - О. Симонов)"
    PERFORMER "Группа «БУТЫРКА»"
    INDEX 00 29:47:44
    INDEX 01 29:48:39
  TRACK 09 AUDIO
    TITLE "Слёзы осени (В. Ждамиров - О. Симонов)"
    PERFORMER "Группа «БУТЫРКА»"
    INDEX 00 32:21:00
    INDEX 01 32:21:70
  TRACK 10 AUDIO
    TITLE "Сорвутся голуби (В. Ждамиров - О. Симонов)"
    PERFORMER "Группа «БУТЫРКА»"
    INDEX 00 35:30:46
    INDEX 01 35:31:41
  TRACK 11 AUDIO
    TITLE "Шарик (В. Ждамиров - О. Симонов)"
    PERFORMER "Группа «БУТЫРКА»"
    INDEX 00 38:33:72
    INDEX 01 38:34:67
  TRACK 12 AUDIO
    TITLE "Гулял сентябрь (В. Ждамиров - О. Симонов)"
    PERFORMER "Группа «БУТЫРКА»"
    INDEX 00 41:39:49
    INDEX 01 41:40:44
  TRACK 13 AUDIO
    TITLE "Тает снег (О. Симонов)"
    PERFORMER "Группа «БУТЫРКА»"
    INDEX 00 44:41:47
    INDEX 01 44:42:41
  TRACK 14 AUDIO
    TITLE "Сероглазая шалунья (Народная в обработке Группы «БУТЫРКА»)"
    PERFORMER "Группа «БУТЫРКА»"
    INDEX 00 47:35:43
    INDEX 01 47:36:38
  TRACK 15 AUDIO
    TITLE "Твоё тепло (В. Ждамиров - О. Симонов)"
    PERFORMER "Группа «БУТЫРКА»"
    INDEX 00 50:37:05
    INDEX 01 50:38:00
  TRACK 16 AUDIO
    TITLE "Девчонка с центра (В. Ждамиров - О. Симонов)"
    PERFORMER "Группа «БУТЫРКА»"
    INDEX 00 54:48:59
    INDEX 01 54:49:54
  TRACK 17 AUDIO
    TITLE "Чечёточка (В. Ждамиров - О. Симонов)"
    PERFORMER "Группа «БУТЫРКА»"
    INDEX 00 57:45:46
    INDEX 01 57:46:41
  TRACK 18 AUDIO
    TITLE "Икона (В. Ждамиров - О. Симонов)"
    PERFORMER "Группа «БУТЫРКА»"
    INDEX 00 60:26:15
    INDEX 01 60:27:10
  TRACK 19 AUDIO
    TITLE "Зелёный дом (В. Ждамиров - О. Симонов)"
    PERFORMER "Группа «БУТЫРКА»"
    INDEX 00 64:26:11
    INDEX 01 64:27:06
  TRACK 20 AUDIO
    TITLE "Небеса (В. Ждамиров - О. Симонов)"
    PERFORMER "Группа «БУТЫРКА»"
    INDEX 00 68:13:47
    INDEX 01 68:14:42

Лог проверки качества

AUDIOCHECKER v2.0 beta (build 457) - by Dester - opdester@freemail.hu
~~~~~~~~~~~~~~~~~~~~~~~~~~~~~~~~~~
-=== DO NOT EDIT THIS FILE! ===-
Path: ...\[2013] Группа «БУТЫРКА» «SUPER HITS COLLECTION. 20 лучших песен»
1 -=- Группа «БУТЫРКА» - Серия «SUPER HITS COLLECTION. 20 лучших песен».wav -=- MPEG (95%)
126409428

COVERS CD

[Профиль] [ЛС]

Создавать темы 14-Июл-2015 18:13 (спустя 13 часов)

Топик был перенесен из форума Сборники в форум Шансон и авторская песня
sergej644
 

Создавать темы 13-Авг-2015 11:04 (спустя 30 дней)

Топик был перенесен из форума Шансон и авторская песня в форум Сhanson
sergej644
 
Кто просматривает тему:

Показать сообщения:    

Текущее время: Сегодня 14:35

Часовой пояс: GMT



Вы не можете начинать темы
Вы не можете отвечать на сообщения
Вы не можете редактировать свои сообщения
Вы не можете удалять свои сообщения
Вы не можете голосовать в опросах
Вы не можете прикреплять файлы к сообщениям
Вы не можете скачивать файлы