Грузовичок Лёва [01-64] (2015) WEBRip

 
Автор Сообщение

достали все ®

Пол:

Стаж: 1 год 8 месяцев

Сообщений: 6571



Награды: 12 (Подробнее)

Mega Seeder 4 (Количество: 1) Mega Releaser 1 (Количество: 1) Mega Seeder 2 (Количество: 1)
Торрент-статистика

Создавать темы 26-Янв-2016 10:36

[Цитировать]

Информация о фильме
Название: Грузовичок Лёва
Год выхода: 2015
Жанр: Детский, Обучающий, Развивающий
Режиссер: Мария Поддубная
О фильме:
Грузовичок Лёва – это уникальный обучающий проект для детей 0-3 лет. Любознательный грузовичок Лёва совсем на похож на большие рабочие грузовики. Он еще маленький и ему не нужно перевозить грузы, и всегда есть время поиграть. В одних эпизодах мультфильма Лева из ярких деталей будет собрать разные машины, которые он видит на картинках, а это - непросто, ведь нужно правильно закрепить все детали и найти ту, которой не хватает. В других - будет изучать цвета, цифры и формы предметов. И, конечно же, Лева будет шалить, как самый настоящий малыш!
Страна: Россия
Студия: ТВ Деткам, Первый проект
Продолжительность: ~ 00:06:00 серия
Перевод: Не требуется
Файл
Кодек: XviD / MP3
Качество: WEBRip
Видео: MPEG4, XviD, 720x400 (16:9), 25.000 fps, 592 Kbps (0.082 bit/pixel)
Звук: MP3, 44.1 KHz, 2 ch, 192 Kbps, CBR

MediaInfo

General
Complete name : 01. Грузовичок Лева и бетономешалка.avi
Format : AVI
Format/Info : Audio Video Interleave
File size : 24.2 MiB
Duration : 4mn 14s
Overall bit rate : 797 Kbps
Writing application : MEncoder SVN-r30881(20100311-gcc4.3.3)
Writing library : MPlayer
Video
ID : 0
Format : MPEG-4 Visual
Format profile : Advanced Simple@L5
Format settings, BVOP : 2
Format settings, QPel : No
Format settings, GMC : No warppoints
Format settings, Matrix : Default (H.263)
Codec ID : XVID
Codec ID/Hint : XviD
Duration : 4mn 14s
Bit rate : 592 Kbps
Width : 720 pixels
Height : 400 pixels
Display aspect ratio : 16:9
Original display aspect ratio : 16:9
Frame rate : 25.000 fps
Color space : YUV
Chroma subsampling : 4:2:0
Bit depth : 8 bits
Scan type : Progressive
Compression mode : Lossy
Bits/(Pixel*Frame) : 0.082
Stream size : 18.0 MiB (74%)
Writing library : XviD 1.2.1 (UTC 2008-12-04)
Audio
ID : 1
Format : MPEG Audio
Format version : Version 1
Format profile : Layer 3
Mode : Joint stereo
Mode extension : MS Stereo
Codec ID : 55
Codec ID/Hint : MP3
Duration : 4mn 14s
Bit rate mode : Constant
Bit rate : 192 Kbps
Channel(s) : 2 channels
Sampling rate : 44.1 KHz
Compression mode : Lossy
Delay relative to video : 40ms
Stream size : 5.83 MiB (24%)
Alignment : Aligned on interleaves
Interleave, duration : 26 ms (0.65 video frame)
Interleave, preload duration : 522 ms
Writing library : LAME3.98
[Профиль] [ЛС]
Показать сообщения:    

Текущее время: Сегодня 02:21

Часовой пояс: GMT



Вы не можете начинать темы
Вы не можете отвечать на сообщения
Вы не можете редактировать свои сообщения
Вы не можете удалять свои сообщения
Вы не можете голосовать в опросах
Вы не можете прикреплять файлы к сообщениям
Вы не можете скачивать файлы