Громче, чем бомбы / Louder Than Bombs (2015) BDRip 720p от AleksSin | Line

 
Автор Сообщение

AleksSin ®

Пол:

Стаж: 6 лет

Сообщений: 218



Награды: 4 (Подробнее)

Mega Seeder 4 (Количество: 1) Mega Seeder 2 (Количество: 1) Mega Seeder 3 (Количество: 1)
Торрент-статистика

Создавать темы 31-Май-2016 06:11

[Цитировать]

Громче, чем бомбы / Louder Than BombsГод выхода: 2015
Жанр: драма
Страна: Норвегия, Франция, Дания
Студия: Motlys, Animal Kingdom, Arte France Cinéma
Продолжительность: 01:44:43
Перевод: Профессиональный (полное дублирование) [Чистый звук - Line]
Субтитры: нет
Навигация по главам: Есть
Режиссер: Йоаким Триер / Joachim Trier
В ролях: Гэбриел Бирн, Изабель Юппер, Джесси Айзенберг, Девин Друид, Эми Райан, Руби Джеринс, Меган Кетч, Дэвид Стрэтэйрн, Рэйчел Броснахэн, Расселл Познер
О фильме:
Одна семья, трое мужчин и три взгляда на любимую женщину. Стареющий плейбой и добродушный отец семейства, остепенившийся насмешливый старший сын и хмурый романтичный подросток хранят свои воспоминания о матери и жене, которая тихому пригороду Нью-Йорка предпочла военную фотографию. То забавные, то пронзительные истории о ней переплетаются с событиями сегодняшнего дня, где каждый из мужчин переживает новую любовь, которая все-таки громче, чем бомбы.

Файл
Кодек: x264
Качество: BDRip 720p (Исходник: Louder.Than.Bombs.2015.1080i.BluRay.REMUX.AVC.DTS-HD.MA.5.1)
Видео: 1280x690, 25.000 fps, AVC ~ 5555 kbps avg
Аудио#1: Russian: 48 kHz, AC3 Dolby Digital, 2/0 (L,R) ch, ~192 kbps |Дублированный, Чистый звук|
Аудио#2: English: 48 kHz, AC3, 3/2 (L,C,R,l,r) + LFE ch, ~448.00 kbps avg |Оригинал|

MediaInfo

Log
x264 [info]: frame I:970 Avg QP:14.56 size:110903
x264 [info]: frame P:28992 Avg QP:15.58 size: 52856
x264 [info]: frame B:127115 Avg QP:17.77 size: 22183
General
Unique ID : 222859412463293864643448387842890668192 (0xA7A9295DA52344E998A628F8BA4618A0)
Complete name : S:ФильмыГромче, чем бомбы. 2015. BDRip 720p (AleksSin).mkv
Format : Matroska
Format version : Version 2
File size : 4.62 GiB
Duration : 1h 44mn
Overall bit rate : 6 320 Kbps
Encoded date : UTC 2016-05-31 05:44:59
Writing application : mkvmerge v7.8.0 ('River Man') 32bit built on Apr 3 2015 12:11:22
Writing library : libebml v1.3.1 + libmatroska v1.4.2
Video
ID : 1
Format : AVC
Format/Info : Advanced Video Codec
Format profile : High@L4.1
Format settings, CABAC : Yes
Format settings, ReFrames : 9 frames
Codec ID : V_MPEG4/ISO/AVC
Duration : 1h 44mn
Bit rate : 5 555 Kbps
Width : 1 280 pixels
Height : 690 pixels
Display aspect ratio : 1.85:1
Frame rate mode : Constant
Frame rate : 25.000 fps
Color space : YUV
Chroma subsampling : 4:2:0
Bit depth : 8 bits
Scan type : Progressive
Bits/(Pixel*Frame) : 0.252
Stream size : 4.06 GiB (88%)
Writing library : x264 core 148 r2692 64f4e24
Encoding settings : cabac=1 / ref=9 / deblock=1:-3:-3 / analyse=0x3:0x133 / me=umh / subme=11 / psy=1 / psy_rd=1.05:0.00 / mixed_ref=1 / me_range=32 / chroma_me=1 / trellis=2 / 8x8dct=1 / cqm=0 / deadzone=21,11 / fast_pskip=1 / chroma_qp_offset=-2 / threads=12 / lookahead_threads=2 / sliced_threads=0 / nr=0 / decimate=1 / interlaced=0 / bluray_compat=0 / constrained_intra=0 / bframes=8 / b_pyramid=2 / b_adapt=2 / b_bias=0 / direct=3 / weightb=1 / open_gop=0 / weightp=2 / keyint=250 / keyint_min=25 / scenecut=40 / intra_refresh=0 / rc_lookahead=60 / rc=crf / mbtree=0 / crf=17.8 / qcomp=0.70 / qpmin=0 / qpmax=69 / qpstep=4 / vbv_maxrate=40000 / vbv_bufsize=30000 / crf_max=0.0 / nal_hrd=none / filler=0 / ip_ratio=1.40 / pb_ratio=1.30 / aq=3:0.85
Default : Yes
Forced : No
Audio #1
ID : 2
Format : AC-3
Format/Info : Audio Coding 3
Mode extension : CM (complete main)
Format settings, Endianness : Big
Codec ID : A_AC3
Duration : 1h 44mn
Bit rate mode : Constant
Bit rate : 192 Kbps
Channel(s) : 2 channels
Channel positions : Front: L R
Sampling rate : 48.0 KHz
Frame rate : 31.250 fps (1536 spf)
Compression mode : Lossy
Stream size : 144 MiB (3%)
Title : Дублированный, Чистый звук
Language : Russian
Default : Yes
Forced : No
Audio #2
ID : 3
Format : AC-3
Format/Info : Audio Coding 3
Mode extension : CM (complete main)
Format settings, Endianness : Big
Codec ID : A_AC3
Duration : 1h 44mn
Bit rate mode : Constant
Bit rate : 448 Kbps
Channel(s) : 6 channels
Channel positions : Front: L C R, Side: L R, LFE
Sampling rate : 48.0 KHz
Frame rate : 31.250 fps (1536 spf)
Compression mode : Lossy
Stream size : 336 MiB (7%)
Title : Оригинал
Language : English
Default : No
Forced : No
Menu
00:00:00.000 : en:
00:10:04.320 : en:
00:18:01.000 : en:
00:30:24.920 : en:
00:38:20.840 : en:
00:49:53.800 : en:
00:58:29.600 : en:
01:06:06.280 : en:
01:12:39.640 : en:
01:21:22.880 : en:
01:32:28.040 : en:
01:38:18.520 : en:

Скриншоты

[Профиль] [ЛС]
Показать сообщения:    

Текущее время: Сегодня 08:56

Часовой пояс: GMT



Вы не можете начинать темы
Вы не можете отвечать на сообщения
Вы не можете редактировать свои сообщения
Вы не можете удалять свои сообщения
Вы не можете голосовать в опросах
Вы не можете прикреплять файлы к сообщениям
Вы не можете скачивать файлы