Громобой / Alex Rider: Operation Stormbreaker / Stormbreaker (Джеффри Сакс / Geoffrey Sax) [2006, Германия, США, Великобритания, Боевик, Триллер, Приключения, Семейный, DVB] MVO (СТС)

 
Автор Сообщение

TorrentFilm ®

Пол:

Стаж: 1 год 11 месяцев

Сообщений: 7741



Награды: Нет

Торрент-статистика

Создавать темы 08-Ноя-2015 00:08

[Цитировать]

Громобой / Alex Rider: Operation Stormbreaker / Stormbreaker
«You're Never Too Young To Die»
Страна: Германия, США, Великобритания
Жанр: Боевик, Триллер, Приключения, Семейный
Год выпуска: 2006
Продолжительность: 01:22:53
Перевод: Профессиональный (многоголосый закадровый) СТС
Cубтитры: нет
Оригинальная аудиодорожка: нет
Режиссер: Джеффри Сакс / Geoffrey Sax
В ролях: Алекс Петтифер, Сара Болгер, Робби Колтрейн, Стивен Фрай, Дэмиэн Льюис, Юэн МакГрегор, Билл Найи, Софи Оконедо, Мисси Пайл, Микки РуркОписание: Алекс Райдер — 14-летний сирота, воспитываемый дядей. Когда его опекун неожиданно погибает, Алекс узнает, что тот был агентом Британской секретной службы. Правительство просит Алекса продолжить выполнение дядиной миссии — расследования преступных дел крупного бизнесмена.
Тут Алексу и приходится применить все его умения и знания, которые передал ему опекун: альпинизм, подводное плавание, боевые искусства и умение обращаться с новейшими техническими изобретениями. В руках Алекса — судьба всего мира.
-Доп. информация: Fullscreen (4:3), в отличии от Widescreen (16:9), имеет большее наполнение кадра по высоте, но меньшее по ширине.-
MPAA: PG - Рекомендуется присутствие родителей-Релиз подготовил Parabellumm, специально для -Качество видео: DVB - Sample
Формат видео: MPG
Видео: MPEG-4 AVC, 720x576 (4:3), 3503 Кбит/с, 25 кадров/сек, 0.338 бит/пиксель
Аудио: MPEG Layer 2, 48 КГц, 2 канал, 256 Кбит/с

MediaInfo

Общее
Идентификатор : 1 (0x1)
Полное имя : C:\...\Stormbreaker.2006.DVB.Fullscreen.MVO.Rutracker-PB.ts
Формат : MPEG-TS
Размер файла : 2,29 Гбайт
Продолжительность : 1 ч. 22 м.
Режим общего битрейта : Переменный
Общий поток : 3958 Кбит/сек
Видео
Идентификатор : 67 (0x43)
Идентификатор меню : 1 (0x1)
Формат : AVC
Формат/Информация : Advanced Video Codec
Профиль формата : High@L3.0
Параметр CABAC формата : Да
Параметр ReFrames формата : 3 кадра
Идентификатор кодека : 27
Продолжительность : 1 ч. 22 м.
Битрейт : 3503 Кбит/сек
Ширина : 720 пикселей
Высота : 576 пикселей
Соотношение сторон : 4:3
Частота кадров : 25,000 кадров/сек
Стандарт вещания : Component
Цветовое пространство : YUV
Субдискретизация насыщенности : 4:2:0
Битовая глубина : 8 бит
Тип развёртки : Чересстрочная
Порядок развёртки : Верхнее поле первое
Бит/(Пиксели*Кадры) : 0.338
Размер потока : 2,03 Гбайт (89%)
Основные цвета : BT.601 PAL
Характеристики трансфера : BT.470 System B, BT.470 System G
Коэффициенты матрицы : BT.601
Аудио
Идентификатор : 68 (0x44)
Идентификатор меню : 1 (0x1)
Формат : MPEG Audio
Версия формата : Version 1
Профиль формата : Layer 2
Идентификатор кодека : 3
Продолжительность : 1 ч. 22 м.
Вид битрейта : Постоянный
Битрейт : 256 Кбит/сек
Каналы : 2 канала
Частота : 48,0 КГц
Метод сжатия : С потерями
Задержка видео : -40 мс.
Размер потока : 152 Мбайт (6%)
Язык : English

Скриншоты


[Профиль] [ЛС]
Кто просматривает тему:

Форум Тема Автор Размер
Фантастика и фэнтези Александр Громов – Мир Тверди 01. Ребус-фактор (2016) MP3 Swager 265 MB
Фантастика, фэнтези Альберт Громов | С Востока на Запад строго по Гринвичу [сборник] (2015) [FB2] достали все 573 KB
Отечественные cериалы Гречанка [01-60 из 60] (Игорь Забара, Ирина Громозда, Мария Ткачёва) [2015, Мелодрама] WEB-DLRip BOSS 32.25 GB
Фильмы 2011 года Громобой / Alex Rider: Operation Stormbreaker / Stormbreaker (Джеффри Сакс / Geoffrey Sax) [2006, Германия, США, Великобритания, боевик, триллер, приключения, семейный, BDRip] Dub painkiller 1.45 GB
Фильмы (HD Rips | 720p, 1080p) Громобой / Stormbreaker (Джеффри Сакс / Geoffrey Sax) [2006, Германия, США, Великобритания, боевик, триллер, приключения, BDRip 720p] Dub + Original Eng + sub Eng reversefile 5.59 GB
Фантастика и фэнтези Громов Александр - Прыткая и Потаскун (2015) MP3 sergej644 76 MB
Фантастика и фэнтези Михаил Тырин - Синдикат «Громовержец» (2016) MP3 Swager 669 MB
Отечественные мультфильмы Сборник мультфильмов Виктора Громова - Полная коллекция (1945-1954) DVDRip достали все 2.64 GB
Показать сообщения:    

Текущее время: Сегодня 20:09

Часовой пояс: GMT



Вы не можете начинать темы
Вы не можете отвечать на сообщения
Вы не можете редактировать свои сообщения
Вы не можете удалять свои сообщения
Вы не можете голосовать в опросах
Вы не можете прикреплять файлы к сообщениям
Вы не можете скачивать файлы