Громобой / Alex Rider: Operation Stormbreaker / Stormbreaker (Джеффри Сакс / Geoffrey Sax) [2006, Германия, США, Великобритания, боевик, триллер, приключения, семейный, BDRip] Dub

 
Автор Сообщение

painkiller ®

Стаж: 2 года 3 месяца

Сообщений: 582



Награды: Нет

Торрент-статистика

Создавать темы 14-Авг-2014 13:02

[Цитировать]

Громобой / Alex Rider: Operation Stormbreaker / Stormbreaker- Год выпуска: 2006
Выпущено: Германия, США, Великобритания
Жанр: боевик, триллер, приключения, семейный
Продолжительность: 01:33:15
Перевод: Профессиональный (полное дублирование)
Субтитры: нет-Режиссер: Джеффри Сакс / Geoffrey Sax
В ролях: Алекс Петтифер, Алисия Сильверстоун, Микки Рурк, Софи Оконедо, Билл Найи, Юэн МакГрегор, Дэмиэн Льюис, Стивен Фрай, Сара Болджер, Энди Серкис
О фильме: Алекс Райдер — 14-летний сирота, воспитываемый дядей. Когда его опекун неожиданно погибает, Алекс узнает, что тот был агентом Британской секретной службы. Правительство просит Алекса продолжить выполнение дядиной миссии — расследования преступных дел крупного бизнесмена.
Тут Алексу и приходится применить все его умения и знания, которые передал ему опекун: альпинизм, подводное плавание, боевые искусства и умение обращаться с новейшими техническими изобретениями. В руках Алекса — судьба всего мира.
Релиз:
Автор: yaroslaigor
Качество: BDRip (источник: / Blu-ray / 1080p)
Формат: AVI
Видео: 720x304 (2.37:1), 23.976 fps, XviD build 65 ~1836 kbps avg, 0.35 bit/pixel
Аудио: 48 kHz, AC3 Dolby Digital, 3/2 (L,C,R,l,r) + LFE ch, ~384.00 kbps avg
Размер: 1487.79 Mb (1/3 DVD-R)-

Кадры из фильма


-

Mi


Формат : AVI
Формат/Информация : Audio Video Interleave
Размер файла : 1,45 Гбайт
Продолжительность : 1 ч. 33 м.
Общий поток : 2230 Кбит/сек
Название фильма : Громобой / Alex Rider: Operation Stormbreaker / Stormbreaker (2006) BDRip
Режиссёр : yaroslaigor
Жанр : боевик, триллер, приключения
Программа кодирования : VirtualDubMod 1.5.10.2 (build 2542/release)
Примечание : 02.04.2014
Видео
Идентификатор : 0
Формат : MPEG-4 Visual
Профиль формата : Advanced Simple@L5
Параметр BVOP формата : 1
Параметр QPel формата : Нет
Параметр GMC формата : Без точки перехода
Параметр матрицы формата : Выборочная
Идентификатор кодека : XVID
Идентификатор кодека/Подсказка : XviD
Продолжительность : 1 ч. 33 м.
Битрейт : 1837 Кбит/сек
Ширина : 720 пикселей
Высота : 304 пикселя
Соотношение сторон : 2,35:1
Частота кадров : 23,976 кадра/сек
Цветовое пространство : YUV
Субдискретизация насыщенности : 4:2:0
Битовая глубина : 8 бит
Тип развёртки : Прогрессивная
Метод сжатия : С потерями
Бит/(Пиксели*Кадры) : 0.350
Размер потока : 1,20 Гбайт (82%)
Библиотека кодирования : XviD 65
Аудио
Идентификатор : 1
Формат : AC-3
Формат/Информация : Audio Coding 3
Расширение режима : CM (complete main)
Параметр Endianness формата : Big
Идентификатор кодека : 2000
Продолжительность : 1 ч. 33 м.
Вид битрейта : Постоянный
Битрейт : 384 Кбит/сек
Каналы : 6 каналов
Расположение каналов : Front: L C R, Side: L R, LFE
Частота : 48,0 КГц
Битовая глубина : 16 бит
Метод сжатия : С потерями
Размер потока : 256 Мбайт (17%)
Выравнивание : Разделение по промежуткам
Продолжительность промежутка : 42 мс. (1,00 видеокадр)
Время предзагрузки промежутка : 500 мс.
-
[Профиль] [ЛС]

Создавать темы 06-Авг-2015 23:13 (спустя 11 месяцев 23 дня)

Топик был перенесен из форума Фильмы до 2014 года в форум Фильмы до 2012 года
sergej644
 
Кто просматривает тему:

Форум Тема Автор Размер
Фантастика и фэнтези Александр Громов – Мир Тверди 01. Ребус-фактор (2016) MP3 Swager 265 MB
Фантастика, фэнтези Альберт Громов | С Востока на Запад строго по Гринвичу [сборник] (2015) [FB2] достали все 573 KB
Отечественные cериалы Гречанка [01-60 из 60] (Игорь Забара, Ирина Громозда, Мария Ткачёва) [2015, Мелодрама] WEB-DLRip BOSS 32.25 GB
Фильмы 2011 года Громобой / Alex Rider: Operation Stormbreaker / Stormbreaker (Джеффри Сакс / Geoffrey Sax) [2006, Германия, США, Великобритания, Боевик, Триллер, Приключения, Семейный, DVB] MVO (СТС) TorrentFilm 2.29 GB
Фильмы (HD Rips | 720p, 1080p) Громобой / Stormbreaker (Джеффри Сакс / Geoffrey Sax) [2006, Германия, США, Великобритания, боевик, триллер, приключения, BDRip 720p] Dub + Original Eng + sub Eng reversefile 5.59 GB
Фантастика и фэнтези Громов Александр - Прыткая и Потаскун (2015) MP3 sergej644 76 MB
Фантастика и фэнтези Михаил Тырин - Синдикат «Громовержец» (2016) MP3 Swager 669 MB
Отечественные мультфильмы Сборник мультфильмов Виктора Громова - Полная коллекция (1945-1954) DVDRip достали все 2.64 GB
Показать сообщения:    

Текущее время: Сегодня 04:56

Часовой пояс: GMT



Вы не можете начинать темы
Вы не можете отвечать на сообщения
Вы не можете редактировать свои сообщения
Вы не можете удалять свои сообщения
Вы не можете голосовать в опросах
Вы не можете прикреплять файлы к сообщениям
Вы не можете скачивать файлы