Гробовщик / The Mortician (Гарет Максвелл Робертс) [2011, триллер, HDRip] [Лицензия]

 
Автор Сообщение

AleksSin ®

Пол:

Стаж: 6 лет

Сообщений: 218



Награды: 4 (Подробнее)

Mega Seeder 3 (Количество: 1) Mega Seeder 4 (Количество: 1) Mega Seeder 2 (Количество: 1)
Торрент-статистика

Создавать темы 04-Апр-2015 13:29

[Цитировать]

Гробовщик / The Mortician«Мертвец из умирающего города» Страна: Великобритания
Жанр: триллер
Год выпуска: 2011
Продолжительность: 01:29:03
Перевод: Профессиональный (многоголосный) [Лицензия]
Cубтитры: Русские, английские
Режиссер: Гарет Максвелл Робертс
В ролях: Метод Мэн, Дэш Майок, Э.Дж. Бонилла, Джуди Марте, Анджелик Замбрана, Уенделл Пирс, Дэна Фучс, Эдвард Ферлонг, Круз Сантьяго, Вернон Брукс
Описание: Одинокий и необщительный Гробовщик работает паталогоанатомом в городском морге. Он изо дня в день, сталкиваясь с трупами, с безразличием относится к своей работе. Жизнь его течет монотонно и спокойно. Но с появлением бывшего преступника Ноа, досрочно освобожденного из мест заключения, который пришел работать в морг, жизнь Гробовщика меняется. А когда он знакомится с маленьким мальчиком Кейном, в его жизни открывается новая страничка. Дело в том, что мать этого мальчугана при невыясненных и странных обстоятельствах была зверски убита. Гробовщик и Кейн поневоле оказываются втянуты в это дело. Начинается опасная борьба с мистическими и пугающими подробностями, не только за свою жизнь, но и жизнь Кейна. Эта борьба с насилием и произволом может грозить Гробовщику и Кейну тюремным заключением не на один год.

Качество видео: HDRip (Исх. BDRip 720p)
Формат видео: AVI
Видео кодек: XviD
Аудио кодек:AC3
Видео: 720x304 (2.37:1), 23.976 fps, XviD build 73 ~2380 kbps avg, 0.46 bit/pixel
Аудио#1: 48 kHz, AC3 Dolby Digital, 3/2 (L,C,R,l,r) + LFE ch, ~448.00 kbps avg (Русский)
Аудио#2: 48 kHz, AC3 Dolby Digital, 3/2 (L,C,R,l,r) + LFE ch, ~448.00 kbps avg (Английский)

MediaInfo

Общее
Полное имя : S:ФильмыГробовщик. 2011.HDRip. 2.05(AleksSin)Гробовщик. 2011.HDRip. (AleksSin).avi
Формат : AVI
Формат/Информация : Audio Video Interleave
Профиль формата : OpenDML
Размер файла : 2,05 Гбайт
Продолжительность : 1 ч. 29 м.
Общий поток : 3294 Кбит/сек
Программа кодирования : VirtualDubModRus 1.5.10.2 (build 2542/release)
Библиотека кодирования : VirtualDubMod build 2542/release
Видео
Идентификатор : 0
Формат : MPEG-4 Visual
Профиль формата : Advanced Simple@L5
Параметр BVOP формата : 1
Параметр QPel формата : Нет
Параметр GMC формата : Без точки перехода
Параметр матрицы формата : Выборочная
Идентификатор кодека : XVID
Идентификатор кодека/Подсказка : XviD
Продолжительность : 1 ч. 29 м.
Битрейт : 2380 Кбит/сек
Ширина : 720 пикс.
Высота : 304 пикс.
Соотношение сторон : 2,35:1
Частота кадров : 23,976 кадр/сек
Цветовое пространство : YUV
Подвыборка цветности : 4:2:0
Битовая глубина : 8 бит
Тип развёртки : Прогрессивная
Метод сжатия : С потерями
Бит/(Пиксели*Кадры) : 0.453
Размер потока : 1,48 Гбайт (72%)
Библиотека кодирования : XviD 73
Аудио #1
Идентификатор : 1
Формат : AC-3
Формат/Информация : Audio Coding 3
Расширение режима : CM (complete main)
Идентификатор кодека : 2000
Продолжительность : 1 ч. 29 м.
Вид битрейта : Постоянный
Битрейт : 448 Кбит/сек
Каналы : 6 каналов
Расположение каналов : Front: L C R, Side: L R, LFE
Частота : 48,0 КГц
Битовая глубина : 16 бит
Метод сжатия : С потерями
Размер потока : 285 Мбайт (14%)
Выравнивание : Разделение по промежуткам
Продолжительность промежутка : 42 мс. (1,00 видеокадр)
Время предзагрузки промежутка : 500 ms
Аудио #2
Идентификатор : 2
Формат : AC-3
Формат/Информация : Audio Coding 3
Расширение режима : CM (complete main)
Идентификатор кодека : 2000
Продолжительность : 1 ч. 29 м.
Вид битрейта : Постоянный
Битрейт : 448 Кбит/сек
Каналы : 6 каналов
Расположение каналов : Front: L C R, Side: L R, LFE
Частота : 48,0 КГц
Битовая глубина : 16 бит
Метод сжатия : С потерями
Размер потока : 285 Мбайт (14%)
Выравнивание : Разделение по промежуткам
Продолжительность промежутка : 42 мс. (1,00 видеокадр)
Время предзагрузки промежутка : 500 ms

Скриншоты

[Профиль] [ЛС]
Кто просматривает тему:

Показать сообщения:    

Текущее время: Сегодня 02:17

Часовой пояс: GMT



Вы не можете начинать темы
Вы не можете отвечать на сообщения
Вы не можете редактировать свои сообщения
Вы не можете удалять свои сообщения
Вы не можете голосовать в опросах
Вы не можете прикреплять файлы к сообщениям
Вы не можете скачивать файлы