Гришкины книжки (Ефрем Пружанский) [1979, СССР, Рисованный мультфильм, WEBRip]

 
Автор Сообщение

TorrentFilm ®

Пол:

Стаж: 2 года

Сообщений: 7741



Награды: Нет

Торрент-статистика

Создавать темы 13-Фев-2016 00:08

[Цитировать]

Гришкины книжки
Страна: СССР
Жанр: Рисованный мультфильм
Продолжительность: 00:09:04
Год выпуска: 1979
Русские субтитры: нет
Режиссёр: Ефрем Пружанский
Роли озвучивали: Детский хор и солисты украинского радио
Описание: По стихотворению Маршака "Книжка про книжку".
Доп. информация: Киевнаучфильм»
Автор сценария: В. Капустян
Художник-постановщик: Н. Чурилов
Композитор: М. Скорик
Оператор: А. Гаврилов
Звукооператор: И. Мойжес
Редактор: Ю. Зморович
Художники-мультипликаторы: И. Бородавко, А. Викен, В. Врублевский,М. Драйцун, Э. Перетятько, Н. Чурилова, Я. Селезнева
Директор картины: И. Мазепа
Раздача группы:
Качество: WEBRip
Формат: AVI
Видео: 704x528 (1.33:1), 25 fps, XviD build 50 ~3053 kbps avg, 0.33 bit/pixel
Аудио: 44.100 kHz, MPEG Layer 3, 2 ch, ~192.00 kbps avg
Субтитры: нет

Подробные технические данные

Format : AVIFormat/Info : Audio Video InterleaveFile size : 212 MiBDuration : 9mn 4sOverall bit rate : 3 258 KbpsWriting application : MEncoder SVN-r30881(20100311-gcc4.3.3)Writing library : MPlayer
VideoID : 0Format : MPEG-4 VisualFormat profile : Advanced Simple@L5Format settings, BVOP : 2Format settings, QPel : NoFormat settings, GMC : No warppointsFormat settings, Matrix : Default (H.263)Codec ID : XVIDCodec ID/Hint : XviDDuration : 9mn 4sBit rate : 3 054 KbpsWidth : 704 pixelsHeight : 528 pixelsDisplay aspect ratio : 1.297Original display aspect ratio : 4:3Frame rate : 25.000 fpsColor space : YUVChroma subsampling : 4:2:0Bit depth : 8 bitsScan type : ProgressiveCompression mode : LossyBits/(Pixel*Frame) : 0.329Stream size : 198 MiB (94%)Writing library : XviD 1.2.1 (UTC 2008-12-04)
AudioID : 1Format : MPEG AudioFormat version : Version 1Format profile : Layer 3Mode : Joint stereoMode extension : MS StereoCodec ID : 55Codec ID/Hint : MP3Duration : 9mn 4sBit rate mode : ConstantBit rate : 192 KbpsChannel(s) : 2 channelsSampling rate : 44.1 KHzCompression mode : LossyDelay relative to video : 40msStream size : 12.5 MiB (6%)Alignment : Aligned on interleavesInterleave, duration : 26 ms (0.65 video frame)Interleave, preload duration : 522 ms

Скриншоты

[Профиль] [ЛС]
Показать сообщения:    

Текущее время: Сегодня 13:49

Часовой пояс: GMT



Вы не можете начинать темы
Вы не можете отвечать на сообщения
Вы не можете редактировать свои сообщения
Вы не можете удалять свои сообщения
Вы не можете голосовать в опросах
Вы не можете прикреплять файлы к сообщениям
Вы не можете скачивать файлы