Грим в Кино: Искусство Грима / Starz Inside: Fantastic Flesh (Кевин ВанХук) [2008, Документальный, HDTV 720p] MVO (NOVAMEDiA)

 
Автор Сообщение

TorrentFilm ®

Пол:

Стаж: 2 года

Сообщений: 7741



Награды: Нет

Торрент-статистика

Создавать темы 10-Фев-2015 00:01

[Цитировать]

Грим в Кино: Искусство Грима / Starz Inside: Fantastic Flesh- Год выпуска: 2008
Страна: США
Канал: Strarz | Amedia 1 HD
Жанр: Документальный
Продолжительность: 0:58:14
Русские субтитры: нет
Перевод: Профессиональный (многоголосый закадровый, Студия NOVAMEDiA по заказу компании Amedia TV)
Режиссер: Кевин ВанХук
В ролях: Ховард Бергер, Роб Боттин, Джош Бролин, Джон Карпентер, Уэс Крэйвен, Джо Данте, Фрэнк Дарабонт, Питер Динклэйдж, Мик Гэррис, Джордан Лэдд-Описание: Грим является одной из составляющих успеха фильма. Сейчас в век компьютерной графики и спецэффектов мы уже наверное забыли о том, что когда то на артистов накладывали килограммы грима, делали ужасные маски и впечатляющие костюмы.- -Автор рипа: lrn
Автор записи: ralf124c41+
Сэмпл: Яндекс.Диск-Тип релиза: HDTV 720p
Контейнер: MKV
Видео: 1280x720 (16:9), 25,000 fps, H264, ~4000 kbps avg, ~0.174 bit/pixel
Аудио: 48 kHz, AC3 Dolby Digital, 2/0 (L,R) ch, ~192.00 kbps avg-

MediaInfo

General
Unique ID : 189958567188152999517791871217162779292 (0x8EE8B07443B7DCADA71D4C87B62BFA9C)
Complete name : E:\uTorrent.Temp\Temp\Starz.Inside.Fantastic.Flesh.2008.HDTV.720p.x264-RUS-lrn.mkv
Format : Matroska
Format version : Version 4 / Version 2
File size : 1.71 GiB
Duration : 58mn 14s
Overall bit rate : 4 194 Kbps
Movie name : 'Starz.Inside.Fantastic.Flesh.2008.HDTV.720p.x264-RUS' by lrn © 2015
Encoded date : UTC 2010-02-22 21:41:31
Writing application : mkvmerge v5.9.0 ('On The Loose') built on Dec 9 2012 15:37:01
Writing library : libebml v1.3.0 + libmatroska v1.4.0
DURATION : 00:58:14.720000000
NUMBER_OF_FRAMES : 87368
NUMBER_OF_BYTES : 1747393360
_STATISTICS_WRITING_APP : mkvmerge v7.0.0 ('Where We Going') 32bit built on Jun 9 2014 15:08:34
_STATISTICS_WRITING_DATE_UT : 2015-02-08 16:08:08
_STATISTICS_TAGS : BPS DURATION NUMBER_OF_FRAMES NUMBER_OF_BYTES
Video
ID : 1
Format : AVC
Format/Info : Advanced Video Codec
Format profile : High@L4.1
Format settings, CABAC : Yes
Format settings, ReFrames : 6 frames
Codec ID : V_MPEG4/ISO/AVC
Duration : 58mn 14s
Bit rate : 4 000 Kbps
Width : 1 280 pixels
Height : 720 pixels
Display aspect ratio : 16:9
Frame rate mode : Constant
Frame rate : 25.000 fps
Color space : YUV
Chroma subsampling : 4:2:0
Bit depth : 8 bits
Scan type : Progressive
Bits/(Pixel*Frame) : 0.174
Stream size : 1.59 GiB (93%)
Writing library : x264 core 142 r2431 ac76440
Encoding settings : cabac=1 / ref=6 / deblock=1:0:0 / analyse=0x3:0x133 / me=umh / subme=9 / psy=1 / psy_rd=1.00:0.00 / mixed_ref=1 / me_range=24 / chroma_me=1 / trellis=2 / 8x8dct=1 / cqm=0 / deadzone=21,11 / fast_pskip=1 / chroma_qp_offset=-2 / threads=12 / lookahead_threads=1 / sliced_threads=0 / nr=0 / decimate=1 / interlaced=0 / bluray_compat=0 / constrained_intra=0 / bframes=6 / b_pyramid=2 / b_adapt=2 / b_bias=0 / direct=3 / weightb=1 / open_gop=0 / weightp=2 / keyint=250 / keyint_min=25 / scenecut=40 / intra_refresh=0 / rc_lookahead=50 / rc=2pass / mbtree=1 / bitrate=4000 / ratetol=1.0 / qcomp=0.60 / qpmin=0 / qpmax=69 / qpstep=4 / cplxblur=20.0 / qblur=0.5 / ip_ratio=1.40 / aq=1:1.00
Default : Yes
Forced : No
Audio
ID : 2
Format : AC-3
Format/Info : Audio Coding 3
Mode extension : CM (complete main)
Format settings, Endianness : Big
Codec ID : A_AC3
Duration : 58mn 14s
Bit rate mode : Constant
Bit rate : 192 Kbps
Channel(s) : 2 channels
Channel positions : Front: L R
Sampling rate : 48.0 KHz
Bit depth : 16 bits
Compression mode : Lossy
Stream size : 80.0 MiB (5%)
Default : Yes
Forced : No

-

Скриншоты

-
[Профиль] [ЛС]
Кто просматривает тему:

Показать сообщения:    

Текущее время: Сегодня 04:15

Часовой пояс: GMT



Вы не можете начинать темы
Вы не можете отвечать на сообщения
Вы не можете редактировать свои сообщения
Вы не можете удалять свои сообщения
Вы не можете голосовать в опросах
Вы не можете прикреплять файлы к сообщениям
Вы не можете скачивать файлы