(Chanson)Григорий Лепс - Лучшие песни - 2016 [FLAC, Image+cue, lossless]

 
Автор Сообщение

sergej644 ®

Пол:

Стаж: 4 года 11 месяцев

Сообщений: 6040

Откуда: Soviet Union



Награды: Нет

Торрент-статистика

Создавать темы 26-Июл-2016 14:21

[Цитировать]

-Григорий Лепс - Лучшие песни--
Год издания: 2016
Страна: Russian
Жанр: Chanson
Продолжительность: 01:19:50-Лейбл издания: Mix Studio
Страна-выпуска диска: Rusian
Номер по каталогу: AR 4502-Формат: FLAC
Битрейт аудио: Lossless
Тип рипа: image +.cue
Наличие сканов в содержимом раздачи: да
-

Трэклист


01. Мне одиноко (3:52)
02. Я поднимаю руки (3:50)
03. Уходи по-английски ( feat. А.Лорак) (3:33)
04. Я нравлюсь женщинам ( feat. Emin) (3:46)
05. Бабосы боссам ( feat. Green Gray) (4:26)
06. Господи, дай мне сил (3:03)
07. Я счастливый (3:43)
08. Старый черт (3:35)
09. Настоящая женщина (3:30)
10. Водопадом (4:15)
11. Уходи красиво (3:52)
12. Лондон ( feat. Тимати) (4:20)
13. Зеркала ( feat. А.Лорак) (3:43)
14. Я тебе не верю ( feat. И.Аллегрова) (4:01)
15. Она не твоя ( feat. Стас Пьехо) (3:36)
16. Рюмка водки на столе (4:16)
17. Натали (4:44)
18. Парус (3:08)
19. Берега (4:04)
20. Бай-бай ( feat. Н.Власова) (3:09)
21. Выбрось из головы (3:24)
-

Лог создания рипа

Exact Audio Copy V1.1 from 23. June 2015
Отчёт EAC об извлечении, выполненном 9. июля 2016, 21:52
Григорий Лепс  / Лучшие песни
Дисковод: TSSTcorpCDDVDW TS-L633J   Adapter: 1  ID: 0
Режим чтения                 : Достоверность
Использование точного потока : Да
Отключение кэша аудио        : Да
Использование указателей C2  : Нет
Коррекция смещения при чтении                     : 6
Способность читать области Lead-in и Lead-out     : Нет
Заполнение пропущенных сэмплов тишиной            : Да
Удаление блоков с тишиной в начале и конце        : Нет
При вычислениях CRC использовались нулевые сэмплы : Да
Интерфейс                                         : Встроенный Win32-интерфейс для Win NT/2000
Выходной формат          : Пользовательский кодировщик
Выбранный битрейт        : 768 kBit/s
Качество                 : Высокий
Добавление ID3-тега      : Нет
Утилита сжатия           : C:\Program Files\Exact Audio Copy\Flac\flac.exe
Дополнительные параметры : -V -8 -T "Date=%year%" -T "Genre=%genre%" %source%
TOC извлечённого CD
     Трек |   Старт  | Длительность | Начальный сектор | Конечный сектор
    ---------------------------------------------------------------------
       1  |  0:00.00 |    3:52.31   |           0      |      17430
       2  |  3:52.31 |    3:49.45   |       17431      |      34650
       3  |  7:42.01 |    3:33.05   |       34651      |      50630
       4  | 11:15.06 |    3:46.27   |       50631      |      67607
       5  | 15:01.33 |    4:26.02   |       67608      |      87559
       6  | 19:27.35 |    3:02.56   |       87560      |     101265
       7  | 22:30.16 |    3:43.25   |      101266      |     118015
       8  | 26:13.41 |    3:35.17   |      118016      |     134157
       9  | 29:48.58 |    3:30.22   |      134158      |     149929
      10  | 33:19.05 |    4:15.28   |      149930      |     169082
      11  | 37:34.33 |    3:52.08   |      169083      |     186490
      12  | 41:26.41 |    4:20.36   |      186491      |     206026
      13  | 45:47.02 |    3:42.53   |      206027      |     222729
      14  | 49:29.55 |    4:00.55   |      222730      |     240784
      15  | 53:30.35 |    3:35.41   |      240785      |     256950
      16  | 57:06.01 |    4:15.53   |      256951      |     276128
      17  | 61:21.54 |    4:44.07   |      276129      |     297435
      18  | 66:05.61 |    3:08.23   |      297436      |     311558
      19  | 69:14.09 |    4:03.40   |      311559      |     329823
      20  | 73:17.49 |    3:08.50   |      329824      |     343973
      21  | 76:26.24 |    3:24.00   |      343974      |     359273
Характеристики диапазона извлечения и сообщения об ошибках
Выбранный диапазон
     Имя файла D:\Download\2016. Григорий Лепс - Лучшие песни {flac}\Григорий Лепс  - Лучшие песни.wav
     Пиковый уровень 100.0 %
     Скорость извлечения 3.3 X
     Качество диапазона 100.0 %
     CRC теста 025FE859
     CRC копии 025FE859
     Копирование... OK
Ошибок не произошло
Конец отчёта

Индексная карта (non-compilant .cue)

REM GENRE Pop
REM DATE 2016
REM DISCID 5212B615
REM COMMENT "ExactAudioCopy v1.1"
PERFORMER "Григорий Лепс "
TITLE "Лучшие песни"
FILE "Григорий Лепс  - Лучшие песни.flac" WAVE
  TRACK 01 AUDIO
    TITLE "Мне одиноко"
    PERFORMER "Григорий Лепс "
    INDEX 01 00:00:00
  TRACK 02 AUDIO
    TITLE "Я поднимаю руки "
    PERFORMER "Григорий Лепс "
    INDEX 01 03:52:31
  TRACK 03 AUDIO
    TITLE "Уходи по-английски  ( feat. А.Лорак)"
    PERFORMER "Григорий Лепс "
    INDEX 01 07:42:01
  TRACK 04 AUDIO
    TITLE "Я нравлюсь женщинам  ( feat. Emin)"
    PERFORMER "Григорий Лепс "
    INDEX 01 11:15:06
  TRACK 05 AUDIO
    TITLE "Бабосы боссам  ( feat. Green Gray)"
    PERFORMER "Григорий Лепс "
    INDEX 01 15:01:33
  TRACK 06 AUDIO
    TITLE "Господи, дай мне сил"
    PERFORMER "Григорий Лепс "
    INDEX 01 19:27:35
  TRACK 07 AUDIO
    TITLE "Я счастливый"
    PERFORMER "Григорий Лепс "
    INDEX 01 22:30:16
  TRACK 08 AUDIO
    TITLE "Старый черт"
    PERFORMER "Григорий Лепс "
    INDEX 01 26:13:41
  TRACK 09 AUDIO
    TITLE "Настоящая женщина"
    PERFORMER "Григорий Лепс "
    INDEX 01 29:48:58
  TRACK 10 AUDIO
    TITLE "Водопадом"
    PERFORMER "Григорий Лепс "
    INDEX 01 33:19:05
  TRACK 11 AUDIO
    TITLE "Уходи красиво"
    PERFORMER "Григорий Лепс "
    INDEX 01 37:34:33
  TRACK 12 AUDIO
    TITLE "Лондон  ( feat. Тимати)"
    PERFORMER "Григорий Лепс "
    INDEX 01 41:26:41
  TRACK 13 AUDIO
    TITLE "Зеркала  ( feat. А.Лорак)"
    PERFORMER "Григорий Лепс "
    INDEX 01 45:47:02
  TRACK 14 AUDIO
    TITLE "Я тебе не верю  ( feat. И.Аллегрова)"
    PERFORMER "Григорий Лепс "
    INDEX 01 49:29:55
  TRACK 15 AUDIO
    TITLE "Она не твоя  ( feat. Стас Пьехо)"
    PERFORMER "Григорий Лепс "
    INDEX 01 53:30:35
  TRACK 16 AUDIO
    TITLE "Рюмка водки на столе"
    PERFORMER "Григорий Лепс "
    INDEX 01 57:06:01
  TRACK 17 AUDIO
    TITLE "Натали"
    PERFORMER "Григорий Лепс "
    INDEX 01 61:21:54
  TRACK 18 AUDIO
    TITLE "Парус"
    PERFORMER "Григорий Лепс "
    INDEX 01 66:05:61
  TRACK 19 AUDIO
    TITLE "Берега"
    PERFORMER "Григорий Лепс "
    INDEX 01 69:14:09
  TRACK 20 AUDIO
    TITLE "Бай-бай  ( feat. Н.Власова)"
    PERFORMER "Григорий Лепс "
    INDEX 01 73:17:49
  TRACK 21 AUDIO
    TITLE "Выбрось из головы"
    PERFORMER "Григорий Лепс "
    INDEX 01 76:26:24
--
[Профиль] [ЛС]
Кто просматривает тему:

Показать сообщения:    

Текущее время: Сегодня 02:44

Часовой пояс: GMT



Вы не можете начинать темы
Вы не можете отвечать на сообщения
Вы не можете редактировать свои сообщения
Вы не можете удалять свои сообщения
Вы не можете голосовать в опросах
Вы не можете прикреплять файлы к сообщениям
Вы не можете скачивать файлы