(шансон) Григорий Лепс - Золотая коллекция. Лучшее (2 CD) - 2009, FLAC (image+.cue), lossless

 
Автор Сообщение

sergej644 ®

Пол:

Стаж: 4 года 11 месяцев

Сообщений: 6045

Откуда: Soviet Union



Награды: Нет

Торрент-статистика

Создавать темы 25-Дек-2014 09:17

[Цитировать]

Григорий Лепс / Золотая коллекция. Лучшее (2 CD)
Жанр: шансон
Страна-производитель диска: Россия
Год издания: 2009
Издатель (лейбл): SAUNDBUGGStudio
Номер по каталогу: LDB 1931-1/2
Страна: Россия
Аудиокодек: FLAC (*.flac)
Тип рипа: image+.cue
Битрейт аудио: lossless
Продолжительность: 01:19:27 / 01:17:27
Источник (релизер): свой рип
Наличие сканов в содержимом раздачи: да
:
Треклист

CD 1

01.Я слушал дождь(LIVE)
02.Летай
03.Ну и что
04.В городе дождь
05.Натали
06.Танго разбитых сердец
07.На струнах дождя
08.Я верю, я дождусь
09.Купола
10.Парус
11.Чистые пруды
12.Рюмка водки на столе
13.Крыса ревность
14.Спокойной ночи,господа
15.Шелест
16.Ангел завтрашнего дня
17.Раздумья мои

CD 2

01.Облака
02.Королева
03.Здравствуйте родные, здравствуйте блатные
04.Маэстро выключите свет
05.Ностальгия
06.Падают листья
07.Лето
08.Братан
09.Медленный блюз
10.Не спится
11.Храни Вас Бог
12.Минувшая весна
13.Первый день рождения
14.Романс
15.Гололёд
16.Целая жизнь
17.Расскажи

Лог создания рипа

CD 1

Exact Audio Copy V1.0 beta 3 from 29. August 2011
Отчёт EAC об извлечении, выполненном 25. мая 2013, 19:28
Григорий Лепс / Золотая коллекция.Лучшее(CD 1)
Дисковод: Optiarc DVD RW AD-5240S   Adapter: 3  ID: 1
Режим чтения                 : Достоверность
Использование точного потока : Да
Отключение кэша аудио        : Да
Использование указателей C2  : Нет
Коррекция смещения при чтении                     : 48
Способность читать области Lead-in и Lead-out     : Нет
Заполнение пропущенных сэмплов тишиной            : Да
Удаление блоков с тишиной в начале и конце        : Нет
При вычислениях CRC использовались нулевые сэмплы : Да
Интерфейс                                         : Установленный внешний ASPI-интерфейс
Выходной формат          : Пользовательский кодировщик
Выбранный битрейт        : 896 kBit/s
Качество                 : Высокий
Добавление ID3-тега      : Нет
Утилита сжатия           : C:\Program Files (x86)\Exact Audio Copy\Flac\flac.exe
Дополнительные параметры : -V -8 -T "Date=%year%" -T "Genre=%genre%" %source%
TOC извлечённого CD
     Трек |   Старт  | Длительность | Начальный сектор | Конечный сектор
    ---------------------------------------------------------------------
       1  |  0:00.00 |    5:58.01   |           0      |      26850
       2  |  5:58.01 |    3:42.00   |       26851      |      43500
       3  |  9:40.01 |    5:02.00   |       43501      |      66150
       4  | 14:42.01 |    5:34.00   |       66151      |      91200
       5  | 20:16.01 |    4:48.00   |       91201      |     112800
       6  | 25:04.01 |    3:48.00   |      112801      |     129900
       7  | 28:52.01 |    5:52.06   |      129901      |     156306
       8  | 34:44.07 |    3:42.00   |      156307      |     172956
       9  | 38:26.07 |    6:42.00   |      172957      |     203106
      10  | 45:08.07 |    3:04.00   |      203107      |     216906
      11  | 48:12.07 |    5:02.00   |      216907      |     239556
      12  | 53:14.07 |    4:18.00   |      239557      |     258906
      13  | 57:32.07 |    4:04.00   |      258907      |     277206
      14  | 61:36.07 |    5:30.00   |      277207      |     301956
      15  | 67:06.07 |    3:18.00   |      301957      |     316806
      16  | 70:24.07 |    4:49.21   |      316807      |     338502
      17  | 75:13.28 |    4:14.03   |      338503      |     357555
Характеристики диапазона извлечения и сообщения об ошибках
Выбранный диапазон
     Имя файла G:\lossless\Лепс Григорий\2009 - Золотая коллекция. Лучшее\CD 1\Григорий Лепс - Золотая коллекция.Лучшее(CD 1).wav
     Пиковый уровень 100.0 %
     Скорость извлечения 4.6 X
     Качество диапазона 100.0 %
     CRC теста 08E33BC4
     CRC копии 08E33BC4
     Копирование... OK
Ошибок не произошло
AccurateRip: сводка
Трек  1  отсутствует в базе данных
Трек  2  отсутствует в базе данных
Трек  3  отсутствует в базе данных
Трек  4  отсутствует в базе данных
Трек  5  отсутствует в базе данных
Трек  6  отсутствует в базе данных
Трек  7  отсутствует в базе данных
Трек  8  отсутствует в базе данных
Трек  9  отсутствует в базе данных
Трек 10  отсутствует в базе данных
Трек 11  отсутствует в базе данных
Трек 12  отсутствует в базе данных
Трек 13  отсутствует в базе данных
Трек 14  отсутствует в базе данных
Трек 15  отсутствует в базе данных
Трек 16  отсутствует в базе данных
Трек 17  отсутствует в базе данных
Ни одного трека нет в базе AccurateRip
Конец отчёта
==== Контрольная сумма отчёта 74C0F3090C0EBC83A606E8B59E9937596A38A194331FDCE44B15CE1B26FB96C1 ====

CD 2

Exact Audio Copy V1.0 beta 3 from 29. August 2011
Отчёт EAC об извлечении, выполненном 25. мая 2013, 20:54
Григорий Лепс / Золотая коллекция,Лучшее(CD-2)
Дисковод: Optiarc DVD RW AD-5240S   Adapter: 3  ID: 1
Режим чтения                 : Достоверность
Использование точного потока : Да
Отключение кэша аудио        : Да
Использование указателей C2  : Нет
Коррекция смещения при чтении                     : 48
Способность читать области Lead-in и Lead-out     : Нет
Заполнение пропущенных сэмплов тишиной            : Да
Удаление блоков с тишиной в начале и конце        : Нет
При вычислениях CRC использовались нулевые сэмплы : Да
Интерфейс                                         : Установленный внешний ASPI-интерфейс
Выходной формат          : Пользовательский кодировщик
Выбранный битрейт        : 896 kBit/s
Качество                 : Высокий
Добавление ID3-тега      : Нет
Утилита сжатия           : C:\Program Files (x86)\Exact Audio Copy\Flac\flac.exe
Дополнительные параметры : -V -8 -T "Date=%year%" -T "Genre=%genre%" %source%
TOC извлечённого CD
     Трек |   Старт  | Длительность | Начальный сектор | Конечный сектор
    ---------------------------------------------------------------------
       1  |  0:00.00 |    4:06.14   |           0      |      18463
       2  |  4:06.14 |    3:44.13   |       18464      |      35276
       3  |  7:50.27 |    4:13.27   |       35277      |      54278
       4  | 12:03.54 |    5:08.47   |       54279      |      77425
       5  | 17:12.26 |    5:28.27   |       77426      |     102052
       6  | 22:40.53 |    3:35.46   |      102053      |     118223
       7  | 26:16.24 |    4:23.62   |      118224      |     138010
       8  | 30:40.11 |    3:36.45   |      138011      |     154255
       9  | 34:16.56 |    4:08.67   |      154256      |     172922
      10  | 38:25.48 |    3:10.73   |      172923      |     187245
      11  | 41:36.46 |    4:21.30   |      187246      |     206850
      12  | 45:58.01 |    5:25.60   |      206851      |     231285
      13  | 51:23.61 |    4:45.66   |      231286      |     252726
      14  | 56:09.52 |    4:46.42   |      252727      |     274218
      15  | 60:56.19 |    6:07.66   |      274219      |     301809
      16  | 67:04.10 |    4:40.21   |      301810      |     322830
      17  | 71:44.31 |    5:42.70   |      322831      |     348550
Характеристики диапазона извлечения и сообщения об ошибках
Выбранный диапазон
     Имя файла G:\lossless\Лепс Григорий\2009 - Золотая коллекция. Лучшее\CD 2\Григорий Лепс - Золотая коллекция,Лучшее(CD-2).wav
     Пиковый уровень 100.0 %
     Скорость извлечения 4.5 X
     Качество диапазона 99.9 %
     CRC теста 7267F3D9
     CRC копии 7267F3D9
     Копирование... OK
Ошибок не произошло
AccurateRip: сводка
Трек  1  отсутствует в базе данных
Трек  2  отсутствует в базе данных
Трек  3  отсутствует в базе данных
Трек  4  отсутствует в базе данных
Трек  5  отсутствует в базе данных
Трек  6  отсутствует в базе данных
Трек  7  отсутствует в базе данных
Трек  8  отсутствует в базе данных
Трек  9  отсутствует в базе данных
Трек 10  отсутствует в базе данных
Трек 11  отсутствует в базе данных
Трек 12  отсутствует в базе данных
Трек 13  отсутствует в базе данных
Трек 14  отсутствует в базе данных
Трек 15  отсутствует в базе данных
Трек 16  отсутствует в базе данных
Трек 17  отсутствует в базе данных
Ни одного трека нет в базе AccurateRip
Конец отчёта
==== Контрольная сумма отчёта 3BE5475E4EF3A609973E56150F609254AFC95B18C4330FE88596B098DF431FEE ====

Лог проверки качества

CD 1

AUDIOCHECKER v2.0 beta (build 457) - by Dester - opdester@freemail.hu
~~~~~~~~~~~~~~~~~~~~~~~~~~~~~~~~~~
-=== НЕ РЕДАКТИРУЙТЕ ЭТОТ ФАЙЛ! ===-
Путь: ...\CD 1
1 -=- Григорий Лепс - Золотая коллекция.Лучшее(CD 1).flac -=- CDDA (100%)
118138868

CD 2

AUDIOCHECKER v2.0 beta (build 457) - by Dester - opdester@freemail.hu
~~~~~~~~~~~~~~~~~~~~~~~~~~~~~~~~~~
-=== НЕ РЕДАКТИРУЙТЕ ЭТОТ ФАЙЛ! ===-
Путь: ...\CD 2
1 -=- Григорий Лепс - Золотая коллекция,Лучшее(CD-2).flac -=- MPEG (95%)
190381652

Tau Analyzer

[Профиль] [ЛС]

Создавать темы 13-Авг-2015 10:06 (спустя 7 месяцев 19 дней)

Топик был перенесен из форума Отечественная в форум Сhanson
sergej644
 
Кто просматривает тему:

Показать сообщения:    

Текущее время: Сегодня 16:26

Часовой пояс: GMT



Вы не можете начинать темы
Вы не можете отвечать на сообщения
Вы не можете редактировать свои сообщения
Вы не можете удалять свои сообщения
Вы не можете голосовать в опросах
Вы не можете прикреплять файлы к сообщениям
Вы не можете скачивать файлы