(Шансон) Григорий Лепс - Дуэты (UA версия) - 2013, FLAC (image+.cue), lossless

 
Автор Сообщение

sergej644 ®

Пол:

Стаж: 4 года 11 месяцев

Сообщений: 6040

Откуда: Soviet Union



Награды: Нет

Торрент-статистика

Создавать темы 19-Дек-2014 17:55

[Цитировать]

Григорий Лепс / Дуэты- Страна-производитель диска: Украина
Жанр: Шансон
Год издания: 2013
Издатель (лейбл): Artur Music
Номер по каталогу: CD 549
Аудиокодек: FLAC (*.flac)
Тип рипа: image+.cue
Битрейт аудио: lossless
Продолжительность: 00:40:26
Источник (релизер): trofim
Наличие сканов в содержимом раздачи: да
01. Обернитесь (с Валерием Меладзе) [03:46]
02. Я тебе не верю (с Ириной Аллегровой) [04:01]
03. Измены (с Викторией Ильинской) [03:41]
04. Гоп-стоп (с Александром Розенбаумом) [03:47]
05. Птица-молодость моя (с Дианой Гурцкой) [04:26]
06. Она не твоя (со Стасом Пьехой) [03:39]
07. Свои (с гр.Любэ) [03:57]
08. Ангел завтрашнего дня (с Ириной Аллегровой) [04:46]
09. Лондон (с Тимати) [04:21]
10. Вечерняя застольная (с А.Розенбаумом и И.Кобзоном) [03:58]

Лог создания рипа

Exact Audio Copy V1.0 beta 1 from 15. November 2010
Отчёт EAC об извлечении, выполненном 19. августа 2013, 18:04
Григорий Лепс / Дуэты
Дисковод: ASUS    DRW-24B3ST   Adapter: 0  ID: 1
Режим чтения                 : Достоверность
Использование точного потока : Да
Отключение кэша аудио        : Да
Использование указателей C2  : Нет
Коррекция смещения при чтении                     : 6
Способность читать области Lead-in и Lead-out     : Нет
Заполнение пропущенных сэмплов тишиной            : Да
Удаление блоков с тишиной в начале и конце        : Нет
При вычислениях CRC использовались нулевые сэмплы : Да
Интерфейс                                         : Встроенный Win32-интерфейс для Win NT/2000
Выходной формат          : Пользовательский кодировщик
Выбранный битрейт        : 896 kBit/s
Качество                 : Высокий
Добавление ID3-тэга      : Нет
Утилита сжатия           : C:\Program Files\FLAC\flac.exe
Дополнительные параметры : -T "DATE=%y" -T "GENRE=%m" -8 -V %s
TOC извлечённого CD
     Трек |   Старт  | Длительность | Начальный сектор | Конечный сектор
    ---------------------------------------------------------------------
       1  |  0:00.00 |    3:46.58   |           0      |      17007
       2  |  3:46.58 |    4:01.53   |       17008      |      35135
       3  |  7:48.36 |    3:41.48   |       35136      |      51758
       4  | 11:30.09 |    3:47.47   |       51759      |      68830
       5  | 15:17.56 |    4:26.38   |       68831      |      88818
       6  | 19:44.19 |    3:39.10   |       88819      |     105253
       7  | 23:23.29 |    3:57.26   |      105254      |     123054
       8  | 27:20.55 |    4:46.07   |      123055      |     144511
       9  | 32:06.62 |    4:21.40   |      144512      |     164126
      10  | 36:28.27 |    3:58.26   |      164127      |     182002
Характеристики диапазона извлечения и сообщения об ошибках
Выбранный диапазон
     Имя файла D:\trofim\Григорий Лепс - Дуэты.wav
     Пиковый уровень 100.0 %
0.7 X
     Качество диапазона 100.0 %
     CRC теста C26E0D07
     CRC копии C26E0D07
     Копирование... OK
Ошибок не произошло
AccurateRip: сводка
Трек  1  нет в базе данных
Трек  2  нет в базе данных
Трек  3  нет в базе данных
Трек  4  нет в базе данных
Трек  5  нет в базе данных
Трек  6  нет в базе данных
Трек  7  нет в базе данных
Трек  8  нет в базе данных
Трек  9  нет в базе данных
Трек 10  нет в базе данных
Ни одного трека нет в базе AccurateRip
Конец отчёта
====  BC0C987E38B2975C50AD6250F35FAC3B4114B0DD2E9045C72DB26C7AD10E6A40 ====

Лог проверки качества

AUDIOCHECKER v2.0 beta (build 457) - by Dester - opdester@freemail.hu
~~~~~~~~~~~~~~~~~~~~~~~~~~~~~~~~~~
-=== НЕ РЕДАКТИРУЙТЕ ЭТОТ ФАЙЛ! ===-
Путь: ...\trofim
1 -=- Григорий Лепс - Дуэты.flac -=- CDDA (100%)
127160788
[Профиль] [ЛС]

Создавать темы 13-Авг-2015 10:06 (спустя 7 месяцев 24 дня)

Топик был перенесен из форума Отечественная в форум Сhanson
sergej644
 
Кто просматривает тему:

Показать сообщения:    

Текущее время: Сегодня 00:47

Часовой пояс: GMT



Вы не можете начинать темы
Вы не можете отвечать на сообщения
Вы не можете редактировать свои сообщения
Вы не можете удалять свои сообщения
Вы не можете голосовать в опросах
Вы не можете прикреплять файлы к сообщениям
Вы не можете скачивать файлы