Грибная охота (М. Заплатин) [1990 г., Документальный, WEBRip]

 
Автор Сообщение

boba88 ®

Стаж: 7 месяцев 13 дней

Сообщений: 19



Награды: Нет

Торрент-статистика

Создавать темы 20-Мар-2017 19:11

[Цитировать]

Грибная охота
Год выпуска: 1990
Страна: Пермь-телефильм
Жанр: Документальный
Продолжительность: 00:18:01
Перевод: Не требуется
Режиссер: М. Заплатин
Текст читает: Иннокентий Смоктуновский
Описание: Самая доступная на Руси из охот- сбор грибов. Занятие это не для ленивых, встать нужно ни свет ни заря, а в лесу каждому грибочку поклониться.
Грибная охота в наших лесах начинается весной: в период цветения подснежников появляются первые грибы - сморчки и строчки.
Качество: WEBRip
Формат: AVI
Видео кодек: DivX
Аудио кодек: AC3
Видео: DivX, 480x368, ~1492 Kbps
Аудио: AC-3, 2 ch, 192 kbps

Скриншоты


Mediainfo:

Общее
Полное имя : F:\КИНО\Грибная охота.avi
Формат : AVI
Формат/Информация : Audio Video Interleave
Размер файла : 242 Мбайт
Продолжительность : 19 м. 54 с.
Общий поток : 1702 Кбит/сек
Программа кодирования : VirtualDubMod 1.5.10.2 (build 2540/release)
Библиотека кодирования : VirtualDubMod build 2540/release
Видео
Идентификатор : 0
Формат : MPEG-4 Visual
Профиль формата : Simple@L1
Параметр BVOP формата : Нет
Параметр QPel формата : Нет
Параметр GMC формата : Без точки перехода
Параметр матрицы формата : Default (H.263)
Идентификатор кодека : FMP4
Продолжительность : 19 м. 54 с.
Битрейт : 1500 Кбит/сек
Ширина : 480 пикселей
Высота : 368 пикселей
Соотношение сторон : 4:3
Частота кадров : 25,000 кадров/сек
Цветовое пространство : YUV
Субдискретизация насыщенности : 4:2:0
Битовая глубина : 8 бит
Тип развёртки : Прогрессивная
Метод сжатия : С потерями
Бит/(Пиксели*Кадры) : 0.340
Размер потока : 214 Мбайт (88%)
Библиотека кодирования : Lavc52.83.0
Аудио
Идентификатор : 1
Формат : AC-3
Формат/Информация : Audio Coding 3
Параметр Endianness формата : Big
Идентификатор кодека : 2000
Продолжительность : 19 м. 54 с.
Вид битрейта : Постоянный
Битрейт : 192 Кбит/сек
Каналы : 2 канала
Расположение каналов : Front: L R
Частота : 48,0 КГц
Частота кадров : 31,250 кадров/сек (1536 spf)
Битовая глубина : 16 бит
Метод сжатия : С потерями
Размер потока : 27,3 Мбайт (11%)
Выравнивание : Разделение по промежуткам
Продолжительность промежутка : 40 мс. (1,00 видеокадр)
Время предзагрузки промежутка : 500 мс.
ServiceKind/String : Complete Main
[Профиль] [ЛС]
Кто просматривает тему:

Форум Тема Автор Размер
Кулинария Наталия Потапова | Грибные заготовки (2014) [PDF] sergej644 16 MB
Показать сообщения:    

Текущее время: Сегодня 04:17

Часовой пояс: GMT



Вы не можете начинать темы
Вы не можете отвечать на сообщения
Вы не можете редактировать свои сообщения
Вы не можете удалять свои сообщения
Вы не можете голосовать в опросах
Вы не можете прикреплять файлы к сообщениям
Вы не можете скачивать файлы