Грейхаунд / Greyhound (2020) WEB-DL 1080p | D

 
Author Message

BOSS ®

Gender:

Longevity: 6 years

Posts: 14809

Location: ODESSA



: 22 ()

Top Seeder 2 (1) Mega Seeder 3 (1) Mega Releaser 4 (1)
Торрент-статистика

Post 17-Oct-2020 18:40

[Quote]

Информация о фильме
Название: Грейхаунд
Оригинальное название: Greyhound
Год выхода: 2020
Жанр: боевик, драма, история
Режиссер: Аарон Шнайдер
В ролях: Том Хэнкс, Стивен Грэм, Роб Морган, Элизабет Шу, Мануэль Рульфо, Карл Глусман, Том Бриттни, Джейк Вентимилья, Мэтт Хелм, Джозеф Поликуин, Девин Друид, Максимилиан Осински, Доминик Китинг, Грэйсон Расселл, Дэйв Дэвис, Майкл Бенц, Трэвис Пшибыльски, Джош Уиггинс, Чет Хэнкс, Йен Джеймс Корлетт, Томас Кречман
Описание: Февраль 1942 года, Северная Атлантика. Морской конвой с войсками и грузами для союзников под патрулированием ВВС США направляется в порт Ливерпуля. Войдя в недосягаемый для авиации сектор, известный как «чёрная яма», суда подвергаются нападению группы немецких подлодок. Капитану головного эсминца «Грейхаунд» Эрнсту Краузе, до этого не принимавшему участия в военных действиях, приходится руководить обороной и отбиваться от так называемой «волчьей стаи».

Страна: США, Китай, Канада
Продолжительность: 01:31:42
Перевод: профессиональный (дублированный)
Субтитры: русские (Forced, Full), английские, эстонские, немецкие, литовские, латышские, украинские
Оригинальная аудиодорожка: английский
Файл
Качество: WEB-DL 1080p
Видео: MPEG-4 AVC, 1920x802 (2.40:1), 23.976 fps, ~10.1 mbps
Аудио 1: E-AC3 ATMOS, 48 kHz, 6 ch, 768 kbps
Аудио 2: E-AC3 ATMOS, 48 kHz, 6 ch, 768 kbps

Скриншоты

MediaInfo

General
Unique ID : 177999949727142964839131949142384956625 (0x85E98B17896A3FBDEFD8F72B1181D4D1)
Complete name : Greyhound.2020.1080p.ATVP.WEB-DL.DDP5.1.Atmos.H.264-EniaHD.mkv
Format : Matroska
Format version : Version 4
File size : 7.43 GiB
Duration : 1 h 31 min
Overall bit rate : 11.6 Mb/s
Movie name : Greyhound (2020) - EniaHD
Encoded date : UTC 2020-10-17 09:54:30
Writing application : mkvmerge v51.0.0 ('I Wish') 64-bit
Writing library : libebml v1.4.0 + libmatroska v1.6.2
Video
ID : 1
Format : AVC
Format/Info : Advanced Video Codec
Format profile : High@L4
Format settings : CABAC / 5 Ref Frames
Format settings, CABAC : Yes
Format settings, Reference fra : 5 frames
Codec ID : V_MPEG4/ISO/AVC
Duration : 1 h 31 min
Bit rate : 10.1 Mb/s
Width : 1 920 pixels
Height : 802 pixels
Display aspect ratio : 2.40:1
Frame rate mode : Constant
Frame rate : 23.976 (24000/1001) FPS
Color space : YUV
Chroma subsampling : 4:2:0
Bit depth : 8 bits
Scan type : Progressive
Bits/(Pixel*Frame) : 0.273
Stream size : 6.45 GiB (87%)
Default : Yes
Forced : No
Color range : Limited
Color primaries : BT.709
Transfer characteristics : BT.709
Matrix coefficients : BT.709
Audio #1
ID : 2
Format : E-AC-3 JOC
Format/Info : Enhanced AC-3 with Joint Object Coding
Commercial name : Dolby Digital Plus with Dolby Atmos
Codec ID : A_EAC3
Duration : 1 h 31 min
Bit rate mode : Constant
Bit rate : 768 kb/s
Channel(s) : 6 channels
Channel layout : L R C LFE Ls Rs
Sampling rate : 48.0 kHz
Frame rate : 31.250 FPS (1536 SPF)
Compression mode : Lossy
Stream size : 504 MiB (7%)
Language : Russian
Service kind : Complete Main
Default : Yes
Forced : No
Complexity index : 16
Number of dynamic objects : 15
Bed channel count : 1 channel
Bed channel configuration : LFE
Audio #2
ID : 3
Format : E-AC-3 JOC
Format/Info : Enhanced AC-3 with Joint Object Coding
Commercial name : Dolby Digital Plus with Dolby Atmos
Codec ID : A_EAC3
Duration : 1 h 31 min
Bit rate mode : Constant
Bit rate : 768 kb/s
Channel(s) : 6 channels
Channel layout : L R C LFE Ls Rs
Sampling rate : 48.0 kHz
Frame rate : 31.250 FPS (1536 SPF)
Compression mode : Lossy
Stream size : 504 MiB (7%)
Language : English
Service kind : Complete Main
Default : No
Forced : No
Complexity index : 16
Number of dynamic objects : 15
Bed channel count : 1 channel
Bed channel configuration : LFE
Text #1
ID : 4
Format : UTF-8
Codec ID : S_TEXT/UTF8
Codec ID/Info : UTF-8 Plain Text
Duration : 1 h 30 min
Bit rate : 6 b/s
Count of elements : 77
Stream size : 4.39 KiB (0%)
Title : Forced
Language : Russian
Default : Yes
Forced : No
Text #2
ID : 5
Format : UTF-8
Codec ID : S_TEXT/UTF8
Codec ID/Info : UTF-8 Plain Text
Duration : 1 h 30 min
Bit rate : 94 b/s
Count of elements : 1095
Stream size : 62.9 KiB (0%)
Language : Russian
Default : No
Forced : No
Text #3
ID : 6
Format : UTF-8
Codec ID : S_TEXT/UTF8
Codec ID/Info : UTF-8 Plain Text
Duration : 1 h 20 min
Bit rate : 66 b/s
Count of elements : 1033
Stream size : 38.8 KiB (0%)
Language : English
Default : No
Forced : No
Text #4
ID : 7
Format : UTF-8
Codec ID : S_TEXT/UTF8
Codec ID/Info : UTF-8 Plain Text
Duration : 1 h 20 min
Bit rate : 72 b/s
Count of elements : 1105
Stream size : 42.3 KiB (0%)
Title : SDH
Language : English
Default : No
Forced : No
Text #5
ID : 8
Format : UTF-8
Codec ID : S_TEXT/UTF8
Codec ID/Info : UTF-8 Plain Text
Duration : 1 h 30 min
Bit rate : 57 b/s
Count of elements : 1090
Stream size : 38.4 KiB (0%)
Language : Estonian
Default : No
Forced : No
Text #6
ID : 9
Format : UTF-8
Codec ID : S_TEXT/UTF8
Codec ID/Info : UTF-8 Plain Text
Duration : 1 h 30 min
Bit rate : 63 b/s
Count of elements : 985
Stream size : 42.3 KiB (0%)
Language : German
Default : No
Forced : No
Text #7
ID : 10
Format : UTF-8
Codec ID : S_TEXT/UTF8
Codec ID/Info : UTF-8 Plain Text
Duration : 1 h 30 min
Bit rate : 69 b/s
Count of elements : 1090
Stream size : 46.0 KiB (0%)
Language : Lithuanian
Default : No
Forced : No
Text #8
ID : 11
Format : UTF-8
Codec ID : S_TEXT/UTF8
Codec ID/Info : UTF-8 Plain Text
Duration : 1 h 30 min
Bit rate : 62 b/s
Count of elements : 1090
Stream size : 41.6 KiB (0%)
Language : Latvian
Default : No
Forced : No
Text #9
ID : 12
Format : UTF-8
Codec ID : S_TEXT/UTF8
Codec ID/Info : UTF-8 Plain Text
Duration : 1 h 30 min
Bit rate : 89 b/s
Count of elements : 1095
Stream size : 59.6 KiB (0%)
Language : Ukrainian
Default : No
Forced : No
[Profile] [PM]
Кто просматривает тему:

Forum Topic Author Size
Фильмы 2019-2020 года Грейхаунд / Greyhound (2020) WEB-DLRip | D BOSS 1.46 GB
Display posts from previous:    

The time now is: Today 10:44

All times are GMT



You cannot post new topics in this forum
You cannot reply to topics in this forum
You cannot edit your posts in this forum
You cannot delete your posts in this forum
You cannot vote in polls in this forum
You cannot attach files in this forum
You cannot download files in this forum