Грейсфилд / The Gracefield Incident (2017) BDRip 720p | D | iTunes

 
Автор Сообщение

Ermoha ®

Стаж: 22 дня

Сообщений: 10



Награды: Нет

Торрент-статистика

Создавать темы 06-Сен-2017 16:52

[Цитировать]

Грейсфилд / The Gracefield Incident (2017) BDRip 720p
Информация о фильме
Название: Грейсфилд
Оригинальное название: The Gracefield Incident
Год выпуска: 2017
Жанр: Фантастика, ужасы, боевик, триллер, детектив
Режиссер: Матье Рэтхи
В ролях: Лоуренс Дофинаис, Джульетт Госселин, Лори Грэхэм, Кимберли Лаферрье, Алекс С. Нати, Матье Рэтхи, Виктор Трелье
О фильме:
В центре сюжета находится разработчик видеоигр Мэтт Донован, который вместе с пятью своими друзьями решает отправиться в комфортабельный загородный дом, чтобы как следует отдохнуть. Запечатлеть безудержное веселье Мэтту помогает видеокамера, встроенная в его глазном протезе. Неожиданно в процессе отрыва ребята слышат громкий звук, раздавшийся в лесу, замечают необычное свечение в ночном небе и нечто, упавшее с прямо неподалеку от их домика. Отправившись на поиски объекта, от которого исходит ужасный шум, друзья обнаруживают в лесу упавший метеорит. Не в силах сдержать любопытства, молодые люди начинают осматривать и ощупывать метеорит, не подозревая, что Землю прибыли агрессивно настроенные инопланетяне, а их отдых в итоге превратится в отчаянную борьбу за выживание.

Страна: США, Канада
Студия: Matt Ratt Productions
Продолжительность: 01:25:03
Перевод: Дублированный | iTunes
Файл
Формат: MKV (x264)
Качество: BDRip 720p
Видео: 6500 kb/s, 1280x544
Аудио: Russian AC3, 384 kb/s (6 ch) / English: AC3, 640 kb/s (6 ch)
Субтитры: English

MI

x264 [info]: frame I:576 Avg QP:14.66 size: 92384
x264 [info]: frame P:34509 Avg QP:17.51 size: 52064
x264 [info]: frame B:87272 Avg QP:19.57 size: 26289
x264 [info]: consecutive B-frames: 6.3% 8.0% 14.1% 20.6% 13.8% 27.7% 4.0% 1.5% 1.2% 0.8% 0.7% 0.4% 0.8%
====================================================================
Общее
Уникальный идентификатор : 177840981702527028074239048925718208645 (0x85CAED5CFAE017F8949C0107D8C76085)
Полное имя : E:Загрузки 2Gracefield.2017.D. BDRip.720p.mkv
Формат : Matroska
Версия формата : Version 2
Размер файла : 4,47 Гбайт
Продолжительность : 1 ч. 25 м.
Общий поток : 7522 Кбит/сек
Дата кодирования : UTC 2017-09-06 16:10:44
Программа кодирования : mkvmerge v7.8.0 ('River Man') 32bit built on Apr 3 2015 12:11:22
Библиотека кодирования : libebml v1.3.1 + libmatroska v1.4.2
Видео
Идентификатор : 1
Формат : AVC
Формат/Информация : Advanced Video Codec
Профиль формата : High@L4.1
Параметр CABAC формата : Да
Параметр ReFrames формата : 12 кадров
Идентификатор кодека : V_MPEG4/ISO/AVC
Продолжительность : 1 ч. 25 м.
Битрейт : 6500 Кбит/сек
Ширина : 1280 пикселей
Высота : 544 пикселя
Соотношение сторон : 2,35:1
Режим частоты кадров : Постоянный
Частота кадров : 23,976 (24000/1001) кадра/сек
Цветовое пространство : YUV
Субдискретизация насыщенности : 4:2:0
Битовая глубина : 8 бит
Тип развёртки : Прогрессивная
Бит/(Пиксели*Кадры) : 0.389
Размер потока : 3,77 Гбайт (84%)
Библиотека кодирования : x264 core 152 r2851 ba24899
Настройки программы : cabac=1 / ref=12 / deblock=1:-2:-2 / analyse=0x3:0x113 / me=umh / subme=10 / psy=1 / psy_rd=1.00:0.00 / mixed_ref=1 / me_range=32 / chroma_me=1 / trellis=2 / 8x8dct=1 / cqm=0 / deadzone=21,11 / fast_pskip=0 / chroma_qp_offset=-2 / threads=12 / lookahead_threads=3 / sliced_threads=0 / nr=0 / decimate=0 / interlaced=0 / bluray_compat=0 / constrained_intra=0 / bframes=12 / b_pyramid=2 / b_adapt=2 / b_bias=0 / direct=3 / weightb=1 / open_gop=1 / weightp=2 / keyint=240 / keyint_min=23 / scenecut=40 / intra_refresh=0 / rc_lookahead=40 / rc=2pass / mbtree=0 / bitrate=6500 / ratetol=1.0 / qcomp=0.60 / qpmin=0 / qpmax=69 / qpstep=4 / cplxblur=20.0 / qblur=0.5 / vbv_maxrate=50000 / vbv_bufsize=62500 / nal_hrd=none / filler=0 / ip_ratio=1.40 / pb_ratio=1.30 / aq=3:0.80
Язык : English
Default : Да
Forced : Нет
Аудио #1
Идентификатор : 2
Формат : AC-3
Формат/Информация : Audio Coding 3
Параметр Endianness формата : Big
Идентификатор кодека : A_AC3
Продолжительность : 1 ч. 25 м.
Вид битрейта : Постоянный
Битрейт : 384 Кбит/сек
Каналы : 6 каналов
Расположение каналов : Front: L C R, Side: L R, LFE
Частота : 48,0 КГц
Частота кадров : 31,250 кадров/сек (1536 spf)
Битовая глубина : 16 бит
Метод сжатия : С потерями
Размер потока : 234 Мбайт (5%)
Заголовок : iTunes
Язык : Russian
Default : Да
Forced : Нет
Аудио #2
Идентификатор : 3
Формат : AC-3
Формат/Информация : Audio Coding 3
Параметр Endianness формата : Big
Идентификатор кодека : A_AC3
Продолжительность : 1 ч. 25 м.
Вид битрейта : Постоянный
Битрейт : 640 Кбит/сек
Каналы : 6 каналов
Расположение каналов : Front: L C R, Side: L R, LFE
Частота : 48,0 КГц
Частота кадров : 31,250 кадров/сек (1536 spf)
Битовая глубина : 16 бит
Метод сжатия : С потерями
Размер потока : 389 Мбайт (9%)
Язык : English
Default : Нет
Forced : Нет
Текст
Идентификатор : 4
Формат : UTF-8
Идентификатор кодека : S_TEXT/UTF8
Идентификатор кодека/Информация : UTF-8 Plain Text
Язык : English
Default : Нет
Forced : Нет
Меню
00:00:00.000 : en:Opening Sequence
00:08:46.000 : en:Lost Reception
00:14:54.000 : en:Debris
00:20:33.000 : en:Caught
00:26:13.000 : en:What Was That?
00:32:57.000 : en:A Bigfoot
00:40:07.000 : en:Creature In The Cabin
00:47:24.000 : en:In The Forest
00:56:26.000 : en:The Balloons
01:04:25.000 : en:Five Hours Before Sunset
01:10:46.000 : en:The Farm
01:19:07.000 : en:End Credits

Скриншоты

[Профиль] [ЛС]
Показать сообщения:    

Текущее время: Сегодня 01:56

Часовой пояс: GMT



Вы не можете начинать темы
Вы не можете отвечать на сообщения
Вы не можете редактировать свои сообщения
Вы не можете удалять свои сообщения
Вы не можете голосовать в опросах
Вы не можете прикреплять файлы к сообщениям
Вы не можете скачивать файлы