Грейспоинт / Gracepoint [01х01-02 из 10] (2014) WEB-DL 720p | NewStudio

 
Автор Сообщение

Белочка ®

Пол:

Стаж: 5 лет 1 месяц

Сообщений: 2089



Награды: 1 (Подробнее)

Girls (Количество: 1)
Торрент-статистика

Создавать темы 11-Окт-2014 20:29

[Цитировать]

Информация о фильме
Название: Грейспоинт
Оригинальное название: Gracepoint
Год выхода: 2014
Жанр: Детектив
Режиссер: Джеймс Стронг
В ролях: Кевин Зегерс, Сара-Джейн Поттс, Дэвид Теннант, Анна Ганн, Джессика Лукас
О фильме:
Когда маленького мальчика находят мертвым на пляже в небольшом калифорнийском приморском городке, полиция начинает расследование. После того, как выясняется, что это было убийство, в СМИ начинается информационное безумие, сконцентрированное на этой трагедии, что коренным образом меняет как жизнь семьи мальчика, так и жизнь всех жителей города.


Страна: США
Продолжительность: ~ 00:43:00
Перевод: Многоголосое профессиональное закадровое озвучание (NewStudio)
Переведено: Наталья Черненко
Постер: Vortex
Файл
Кодек: h.264
Качество: WEB-DL 720p
Видео: ~ 4000 Кбит/с, 1280x720, 23.976 кадр/с
Звук: Русский, английский (AC3, 6 ch, 384 Кбит/с)

MI

Общее
Уникальный идентификатор : 245770344503333163795957054708781072988 (0xB8E5A5870FE3C3BF8E487305B3EEC25C)
Полное имя : Gracepoint.s01e01.WEBDL.720p.NewStudio.TV.mkv
Формат : Matroska
Версия формата : Version 2
Размер файла : 1,62 Гбайт
Продолжительность : 46 м.
Общий поток : 5027 Кбит/сек
Дата кодирования : UTC 2014-10-04 06:43:06
Программа кодирования : mkvmerge v2.9.9 ('Tutu') built on Nov 25 2009 21:13:32
Библиотека кодирования : libebml v0.7.9 + libmatroska v0.8.1
Видео
Идентификатор : 1
Формат : AVC
Формат/Информация : Advanced Video Codec
Профиль формата : High@L3.1
Параметр CABAC формата : Нет
Параметр ReFrames формата : 2 кадра
Идентификатор кодека : V_MPEG4/ISO/AVC
Продолжительность : 46 м.
Битрейт : 4159 Кбит/сек
Ширина : 1280 пикселей
Высота : 720 пикселей
Соотношение сторон : 16:9
Режим частоты кадров : Постоянный
Частота кадров : 23,976 кадра/сек
Цветовое пространство : YUV
Субдискретизация насыщенности : 4:2:0
Битовая глубина : 8 бит
Тип развёртки : Прогрессивная
Бит/(Пиксели*Кадры) : 0.188
Размер потока : 1,34 Гбайт (83%)
Язык : English
Default : Нет
Forced : Нет
Основные цвета : BT.709
Характеристики трансфера : BT.709
Коэффициенты матрицы : BT.709
Аудио #1
Идентификатор : 2
Формат : AC-3
Формат/Информация : Audio Coding 3
Расширение режима : CM (complete main)
Параметр Endianness формата : Big
Идентификатор кодека : A_AC3
Продолжительность : 46 м.
Вид битрейта : Постоянный
Битрейт : 384 Кбит/сек
Каналы : 6 каналов
Расположение каналов : Front: L C R, Side: L R, LFE
Частота : 48,0 КГц
Битовая глубина : 16 бит
Метод сжатия : С потерями
Размер потока : 127 Мбайт (8%)
Язык : Russian
Default : Да
Forced : Да
Аудио #2
Идентификатор : 3
Формат : AC-3
Формат/Информация : Audio Coding 3
Расширение режима : CM (complete main)
Параметр Endianness формата : Big
Идентификатор кодека : A_AC3
Продолжительность : 46 м.
Вид битрейта : Постоянный
Битрейт : 384 Кбит/сек
Каналы : 6 каналов
Расположение каналов : Front: L C R, Side: L R, LFE
Частота : 48,0 КГц
Битовая глубина : 16 бит
Метод сжатия : С потерями
Размер потока : 127 Мбайт (8%)
Язык : English
Default : Нет
Forced : Нет

Скриншоты



Релиз от:
[Профиль] [ЛС]
Показать сообщения:    

Текущее время: Сегодня 10:33

Часовой пояс: GMT



Вы не можете начинать темы
Вы не можете отвечать на сообщения
Вы не можете редактировать свои сообщения
Вы не можете удалять свои сообщения
Вы не можете голосовать в опросах
Вы не можете прикреплять файлы к сообщениям
Вы не можете скачивать файлы