Граф Монтенегро (Марина Мигунова) [2006 г., комедия, приключения, HDDVDRip (720p)]

 
Автор Сообщение

AleksSin ®

Пол:

Стаж: 6 лет

Сообщений: 218



Награды: 4 (Подробнее)

Mega Seeder 4 (Количество: 1) Mega Seeder 3 (Количество: 1) Mega Seeder 2 (Количество: 1)
Торрент-статистика

Создавать темы 24-Сен-2015 16:43

[Цитировать]

Граф Монтенегро«Каждый ищет свое сокровище» Год выпуска: 2006
Страна: Россия
Жанр: комедия, приключения
Продолжительность: 01:52:33
Перевод: Не требуется
Субтитры: Русские
Режиссер: Марина Мигунова
В ролях: Александр Домогаров, Алексей Чадов, Виктор Бычков, Евгения Брик (Хиривская), Валерий Марьянов, Александр Кольцов, Инна Милорадова
Описание: Смертельно раненый во время восстания декабристов генерал-губернатор Санкт-Петербурга Михаил Милорадович, открывает тайну спрятанных в горах Черногории сокровищ своей возлюбленной — актрисе Екатерине Телешевой. Её потомок — Андрей Телешев — безуспешно пытается расшифровать доставшуюся по наследству драгоценную карту. Но это копия…
Оригинал карты принадлежит потомку Милорадовича — Михаилу — встреча, которого с Андреем подталкивает его на поездку в Черногорию. По прихоти предков, только вдвоем они способны найти клад. Неожиданно у них появляется серьезный конкурент в лице священнослужителя Отца Сергия, который, случайно узнав о тайне, также претендует на сокровища.
Кладоискателей ждут комичные ситуации, невероятные приключения и, конечно, любовь. Черногорская красавица Славка должна помочь авантюристам осуществить их мечту, но посреди бесконечного карнавала в древнем городе высоко в горах, героям не избежать её чар… Дикие скалы, ледяные пещеры, мрачные крепости, суровые горцы и безудержное стремление к заветной цели навсегда изменят судьбы наших героев!

Качество: HDDVDRip (720p) (Исх. HDDVD Remux (1080p))
Формат: MKV
Видео кодек: H.264
Аудио кодек: AC3
Видео: MPEG-4 AVC, 8852 Кбит/с, 1280x690 (!,85:1), 23,976 кадра/сек
Аудио: AC3, 6 каналов, 640 Кбит/с, 48,0 КГц, 16 бит
Навигация по главам: Есть

MediaInfo

Общее
Уникальный идентификатор : 204104171757538361163932609520441179043 (0x998D089B1294F3E6BF7C339C92573BA3)
Полное имя : S:ФильмыГраф Монтенегро. 2006. HDDVDRip 720p. (AleksSin).mkv
Формат : Matroska
Версия формата : Version 4 / Version 2
Размер файла : 7,61 Гбайт
Продолжительность : 1 ч. 52 м.
Общий поток : 9685 Кбит/сек
Дата кодирования : UTC 2015-09-24 15:24:17
Программа кодирования : mkvmerge v8.1.0 ('Psychedelic Postcard') 32bit
Библиотека кодирования : libebml v1.3.1 + libmatroska v1.4.2
DURATION : 01:49:10.662000000
NUMBER_OF_FRAMES : 1025
NUMBER_OF_BYTES : 55647
_STATISTICS_WRITING_APP : mkvmerge v8.1.0 ('Psychedelic Postcard') 32bit
_STATISTICS_WRITING_DATE_UTC : 2015-09-24 15:24:17
_STATISTICS_TAGS : BPS DURATION NUMBER_OF_FRAMES NUMBER_OF_BYTES
Видео
Идентификатор : 1
Формат : AVC
Формат/Информация : Advanced Video Codec
Профиль формата : High@L4.1
Параметр CABAC формата : Да
Параметр ReFrames формата : 8 кадров
Идентификатор кодека : V_MPEG4/ISO/AVC
Продолжительность : 1 ч. 52 м.
Битрейт : 8852 Кбит/сек
Ширина : 1280 пикселей
Высота : 690 пикселей
Соотношение сторон : 1,85:1
Режим частоты кадров : Постоянный
Частота кадров : 23,976 кадра/сек
Цветовое пространство : YUV
Субдискретизация насыщенности : 4:2:0
Битовая глубина : 8 бит
Тип развёртки : Прогрессивная
Бит/(Пиксели*Кадры) : 0.418
Размер потока : 6,96 Гбайт (91%)
Библиотека кодирования : x264 core 146 r2538 121396c
Настройки программы : cabac=1 / ref=8 / deblock=1:-3:-3 / analyse=0x3:0x133 / me=umh / subme=11 / psy=1 / psy_rd=1.00:0.00 / mixed_ref=1 / me_range=32 / chroma_me=1 / trellis=2 / 8x8dct=1 / cqm=0 / deadzone=21,11 / fast_pskip=1 / chroma_qp_offset=-2 / threads=12 / lookahead_threads=2 / sliced_threads=0 / nr=0 / decimate=1 / interlaced=0 / bluray_compat=0 / constrained_intra=0 / bframes=8 / b_pyramid=2 / b_adapt=2 / b_bias=0 / direct=1 / weightb=1 / open_gop=0 / weightp=2 / keyint=250 / keyint_min=23 / scenecut=40 / intra_refresh=0 / rc=crf / mbtree=0 / crf=17.8 / qcomp=0.60 / qpmin=0 / qpmax=69 / qpstep=4 / ip_ratio=1.40 / pb_ratio=1.30 / aq=1:1.00
Default : Да
Forced : Нет
Аудио
Идентификатор : 2
Формат : AC-3
Формат/Информация : Audio Coding 3
Расширение режима : CM (complete main)
Параметр Endianness формата : Big
Идентификатор кодека : A_AC3
Продолжительность : 1 ч. 52 м.
Вид битрейта : Постоянный
Битрейт : 640 Кбит/сек
Каналы : 6 каналов
Расположение каналов : Front: L C R, Side: L R, LFE
Частота : 48,0 КГц
Битовая глубина : 16 бит
Метод сжатия : С потерями
Размер потока : 515 Мбайт (7%)
Default : Да
Forced : Нет
Текст
Идентификатор : 3
Формат : UTF-8
Идентификатор кодека : S_TEXT/UTF8
Идентификатор кодека/Информация : UTF-8 Plain Text
Default : Да
Forced : Нет
Меню
00:00:00.000 : ru:Тайна генерала Милорадовича
00:04:50.423 : ru:Москва, наши дни. След старинных сокровищ
00:11:54.046 : ru:Вперед в Монте-Негро - за кладом!
00:16:18.978 : ru:Двойная слежка
00:27:11.997 : ru:Принцесса Монте-Негро
00:32:00.886 : ru:28 поворотов
00:47:19.470 : ru:Замок Негушей
00:53:36.814 : ru:Страсти отца Сергия
01:10:28.191 : ru:Третий лишний
01:17:55.771 : ru:У порога тайны
01:33:58.733 : ru:Без надежды
01:43:52.960 : ru:Каждый ищет свое сокровище

Скриншоты

[Профиль] [ЛС]
Кто просматривает тему:

Показать сообщения:    

Текущее время: Сегодня 12:33

Часовой пояс: GMT



Вы не можете начинать темы
Вы не можете отвечать на сообщения
Вы не можете редактировать свои сообщения
Вы не можете удалять свои сообщения
Вы не можете голосовать в опросах
Вы не можете прикреплять файлы к сообщениям
Вы не можете скачивать файлы