Графомафия (2017) WEB-DL 1080p | iTunes

 
Автор Сообщение

BOSS ®

Пол:

Стаж: 2 года 11 месяцев

Сообщений: 7139

Откуда: ODESSA



Награды: 20 (Подробнее)

Top Releaser 2 (Количество: 1) Mega Seeder 3 (Количество: 1) Mega Seeder 4 (Количество: 1)
Торрент-статистика

Создавать темы 08-Сен-2017 06:58

[Цитировать]

Графомафия
Страна: Россия
Производство: Студия Крылья
Год выпуска: 2017
Жанр: комедия
Продолжительность: 01:33:36
Режиссеры: Владимир Зайкин, Эдуард Радзюкевич
Авторы сценария: Владимир Зайкин, Эдуард Радзюкевич, Сергей Плотов
В ролях: Гоша Куценко, Даниил Спиваковский, Станислав Дужников, Эдуард Радзюкевич, Юрий Стоянов, Дарья Екамасова, Маргарита Шубина
Описание: Успешный издатель Надежда Павловна нанимает мечтающих о славе графоманов, чтобы убить талантливого писателя и присвоить его роман, который принесет славу ее обожаемому сыну. Но Шурок равнодушен и к славе, и к литературе. Он любит дорогие машины и красивых девушек. Банда графоманов с энтузиазмом берется за дело. Ведь цена успеха — издание их творений. Но, оказывается, применять кровавые методы в жизни намного сложнее, чем в написании триллера. У каждого свое представление об успехе и счастье. Для одних это встреча с возлюбленным, для других — популярность в соцсетях, а для кого-то предел мечтаний увидеть свое имя на книжной обложке...

Перевод: не требуется (оригинал) | iTunes
Субтитры: нет-Качество: WEB-DL 1080p
Формат: МКV
Видео кодек: AVC
Аудио кодек: АС3
Видео: 1920x806 (2.40:1), 25.000 fps, MPEG-4 AVC ~4 648 kbps avg
Аудио: 48.0 kHz, AC3 Dolby Digital, 3/2 (L,C,R,l,r) + LFE ch, ~384 kbps
Дата премьеры (РФ): 17 августа 2017, «Парадиз»

Media Info

General
General
Unique ID : 254444388843555414627289233177409263786 (0xBF6C34EE95A4EDCAA810EE08E06898AA)
Complete name : Grafomafiya.2017.O.1080p.WEB-DL.Rustorrents.mkv
Format : Matroska
Format version : Version 2
File size : 3.36 GiB
Duration : 1h 33mn
Overall bit rate : 5 134 Kbps
Encoded date : UTC 2017-09-08 04:09:34
Writing application : mkvmerge v7.8.0 ('River Man') 32bit built on Apr 3 2015 12:11:22
Writing library : libebml v1.3.1 + libmatroska v1.4.2
Video
ID : 1
Format : AVC
Format/Info : Advanced Video Codec
Format profile : High@L4
Format settings, CABAC : Yes
Format settings, ReFrames : 5 frames
Codec ID : V_MPEG4/ISO/AVC
Duration : 1h 33mn
Bit rate : 4 648 Kbps
Width : 1 920 pixels
Height : 806 pixels
Display aspect ratio : 2.40:1
Frame rate mode : Constant
Frame rate : 25.000 fps
Color space : YUV
Chroma subsampling : 4:2:0
Bit depth : 8 bits
Scan type : Progressive
Bits/(Pixel*Frame) : 0.120
Stream size : 3.04 GiB (91%)
Language : English
Default : Yes
Forced : No
Color range : Limited
Color primaries : BT.709
Transfer characteristics : BT.709
Matrix coefficients : BT.709
Audio
ID : 2
Format : AC-3
Format/Info : Audio Coding 3
Mode extension : CM (complete main)
Format settings, Endianness : Big
Codec ID : A_AC3
Duration : 1h 33mn
Bit rate mode : Constant
Bit rate : 384 Kbps
Channel(s) : 6 channels
Channel positions : Front: L C R, Side: L R, LFE
Sampling rate : 48.0 KHz
Compression mode : Lossy
Stream size : 257 MiB (7%)
Title : iTunes
Language : Russian
Default : Yes
Forced : Yes
Menu
00:00:00.000 : en:Глава 1
00:06:41.160 : en:Глава 2
00:12:34.440 : en:Глава 3
00:18:59.039 : en:Глава 4
00:23:31.358 : en:Глава 5
00:28:01.838 : en:Глава 6
00:33:24.397 : en:Глава 7
00:39:58.157 : en:Глава 8
00:46:12.316 : en:Глава 9
00:51:26.595 : en:Глава 10
00:58:21.995 : en:Глава 11
01:04:05.955 : en:Глава 12
01:10:08.634 : en:Глава 13
01:16:05.394 : en:Глава 14
01:21:12.234 : en:Глава 15
01:25:52.834 : en:Глава 16

Скриншоты

[Профиль] [ЛС]
Кто просматривает тему:

Форум Тема Автор Размер
Фильмы 2017 года Графомафия (2017) WEB-DLRip | iTunes BOSS 1.46 GB
Показать сообщения:    

Текущее время: Сегодня 17:30

Часовой пояс: GMT



Вы не можете начинать темы
Вы не можете отвечать на сообщения
Вы не можете редактировать свои сообщения
Вы не можете удалять свои сообщения
Вы не можете голосовать в опросах
Вы не можете прикреплять файлы к сообщениям
Вы не можете скачивать файлы