Гран Торино / Gran Torino (2008) BDRip 1080p от denis 100 | D, P, A

 
Автор Сообщение

Russian Mafia ®

Пол:

Стаж: 1 год 8 месяцев

Сообщений: 4257



Награды: 10 (Подробнее)

Top Releaser 5 (Количество: 1) Mega Seeder 4 (Количество: 1) Top Releaser 2 (Количество: 1)
Торрент-статистика

Создавать темы 08-Сен-2015 04:29

[Цитировать]

Информация о фильме
Название: Гран Торино
Оригинальное название: Gran Torino
Год выпуска: 2008
Жанр: Драма, криминал
Выпущено: США, Германия, Double Nickel Entertainment, Gerber Pictures, Malpaso Productions, Matten Productions, Media Magik Entertainment, Village Roadshow Pictures, Warner Bros. GmbH
Режиссер: Клинт Иствуд
В ролях: Клинт Иствуд, Би Ванг, Кристофер Карли, Эни Хи, Брайан Хейли, Джеральдин Хьюз, Дрима Уокер, Брайан Хау, Джон Кэрролл Линч, Уильям Хилл, Брук Чиа Тхао, Чее Тхао, Чоуа Ку, Скотт Иствуд, Хиа Соуа Чанг, Сонни Ву, Доа Моа, Грег Тразаскома, Джон Джонс, Дэвис Глоф, Томас Д. Махард, Кори Хардрикт, Нана Гбивонио, Артур Картрайт, Остин Дуглас Смит, Конор Лайам Каллахэн, Майкл Э. Куровский, Джулия Хо, Маокао К. Литонгпао, Карлос Гуадаррама, Эндрю Тамез-Халл, Рамон Камачо, Антонио Майрилис, Я Ву Янг, Зоя Ку, Элвис Тхао, Джерри Ли
Перевод: Дублированный, профессиональный многоголосый, авторский-Сюжет фильма
Вышедший на пенсию автомеханик Уолт Ковальски проводит дни, чиня что-то по дому, попивая пиво и раз в месяц заходя к парикмахеру. И хотя последним желанием его недавно почившей жены было совершение им исповеди, Уолту — ожесточившемуся ветерану Корейской войны, всегда держащему свою винтовку наготове, — признаваться в общем-то не в чем. Да и нет того, кому он доверял бы в той полной мере, в какой доверяет своей собаке Дейзи. Все те люди, коих он некогда называл своими соседями, либо переехали, либо ушли в мир иной, а на смену им пришли иммигранты-хмоны, которых он откровенно презирает. Противясь буквально всему, во что упирается его взгляд, — покосившиеся карнизы, заросшие лужайки домов и лица иностранцев повсюду; бесцельно шатающиеся шайки подростков, состоящие из хмонов, латиносов и афро-американцев, полагающих, что окрестный мир целиком принадлежит им одним; неоперившиеся чужаки, в которых оказалось превратились собственные дети и внуки, — Уолт просто неспешно проживает остаток своей жизни. До той самой ночи, когда кто-то попытается украсть его «Гран Торино»…
-Файл
Качество: BDRip 1080p (исходник Blu-ray)
Видео: 1920x800, 7 650 Кбит/сек, 23,976 кадр/сек, AVC, x264, High@L4.1, 0.186 Бит/[Пиксели*Кадры], 2pass
Аудио 1: AC3 5.1 48 kHz 640 kbps - Дублированный, Blu-ray CEE
Аудио 2: AC3 2.0 48 kHz 192 kbps - Многоголосый закадровый, ОРТ
Аудио 3: AC3 5.1 48 kHz 640 kbps - Авторский (одноголосый закадровый) (Ю.Сербин)
Аудио 4: AC3 5.1 48 kHz 640 kbps - Авторский (одноголосый закадровый) (Д.Штамп) - присутствует ненормативная лексика
Аудио 5: AC3 5.1 48 kHz 640 kbps - Оригинальный / Английский
Аудио 6: AC3 5.1 48 kHz 640 kbps - Украинский (Многоголосый закадровый, Омикрон)
Чаптеры: есть
Субтитры: Русские
Продолжительность: 01:56:34Автор Рипа:

Скриншоты

MediaInfo

Format : Matroska
Format version : Version 2
File size : 8.50 GiB
Duration : 1h 56mn
Overall bit rate : 10.4 Mbps
Movie name : Gran Torino.(2008).BDRip.1080p.[denis100]
Encoded date : UTC 2014-01-07 13:12:59
Writing application : mkvmerge v5.8.0 ('No Sleep / Pillow') built on Sep 2 2012 15:37:04
Writing library : libebml v1.2.3 + libmatroska v1.3.0
Video
ID : 1
Format : AVC
Format/Info : Advanced Video Codec
Format profile : High@L4.1
Format settings, CABAC : Yes
Format settings, ReFrames : 5 frames
Codec ID : V_MPEG4/ISO/AVC
Duration : 1h 56mn
Bit rate : 6 836 Kbps
Nominal bit rate : 7 650 Kbps
Width : 1 920 pixels
Height : 800 pixels
Display aspect ratio : 2.40:1
Frame rate mode : Constant
Frame rate : 23.976 fps
Color space : YUV
Chroma subsampling : 4:2:0
Bit depth : 8 bits
Scan type : Progressive
Bits/(Pixel*Frame) : 0.186
Stream size : 5.57 GiB (66%)
Title : Gran Torino.(2008).BDRip.1080p от denis100
Writing library : x264 core 140 r2377 1ca7bb9
Encoding settings : cabac=1 / ref=5 / deblock=1:-3:-3 / analyse=0x3:0x133 / me=umh / subme=10 / psy=1 / psy_rd=1.00:0.10 / mixed_ref=1 / me_range=32 / chroma_me=1 / trellis=2 / 8x8dct=1 / cqm=0 / deadzone=21,11 / fast_pskip=0 / chroma_qp_offset=-3 / threads=6 / lookahead_threads=1 / sliced_threads=0 / nr=0 / decimate=0 / interlaced=0 / bluray_compat=0 / constrained_intra=0 / bframes=8 / b_pyramid=2 / b_adapt=2 / b_bias=0 / direct=3 / weightb=1 / open_gop=0 / weightp=2 / keyint=240 / keyint_min=23 / scenecut=40 / intra_refresh=0 / rc=2pass / mbtree=0 / bitrate=7650 / ratetol=1.0 / qcomp=0.60 / qpmin=0 / qpmax=69 / qpstep=4 / cplxblur=20.0 / qblur=0.5 / ip_ratio=1.40 / pb_ratio=1.30 / aq=1:0.90
Language : English
Default : Yes
Forced : No
Audio #1
ID : 2
Format : AC-3
Format/Info : Audio Coding 3
Mode extension : CM (complete main)
Format settings, Endianness : Big
Codec ID : A_AC3
Duration : 1h 56mn
Bit rate mode : Constant
Bit rate : 640 Kbps
Channel count : 6 channels
Channel positions : Front: L C R, Side: L R, LFE
Sampling rate : 48.0 KHz
Bit depth : 16 bits
Compression mode : Lossy
Stream size : 534 MiB (6%)
Title : Дублированный, Blu-ray CEE
Language : Russian
Default : Yes
Forced : No
Audio #2
ID : 3
Format : AC-3
Format/Info : Audio Coding 3
Mode extension : CM (complete main)
Format settings, Endianness : Big
Codec ID : A_AC3
Duration : 1h 56mn
Bit rate mode : Constant
Bit rate : 192 Kbps
Channel count : 2 channels
Channel positions : Front: L R
Sampling rate : 48.0 KHz
Bit depth : 16 bits
Compression mode : Lossy
Stream size : 160 MiB (2%)
Title : Многоголосый закадровый, ОРТ
Language : Russian
Default : No
Forced : No
Audio #3
ID : 4
Format : AC-3
Format/Info : Audio Coding 3
Mode extension : CM (complete main)
Format settings, Endianness : Big
Codec ID : A_AC3
Duration : 1h 56mn
Bit rate mode : Constant
Bit rate : 640 Kbps
Channel count : 6 channels
Channel positions : Front: L C R, Side: L R, LFE
Sampling rate : 48.0 KHz
Bit depth : 16 bits
Compression mode : Lossy
Stream size : 534 MiB (6%)
Title : Одноголосый закадровый, Ю.Сербин
Language : Russian
Default : No
Forced : No
Audio #4
ID : 5
Format : AC-3
Format/Info : Audio Coding 3
Mode extension : CM (complete main)
Format settings, Endianness : Big
Codec ID : A_AC3
Duration : 1h 56mn
Bit rate mode : Constant
Bit rate : 640 Kbps
Channel count : 6 channels
Channel positions : Front: L C R, Side: L R, LFE
Sampling rate : 48.0 KHz
Bit depth : 16 bits
Compression mode : Lossy
Stream size : 534 MiB (6%)
Title : Одноголосый закадровый, Д.Штамп
Language : Russian
Default : No
Forced : No
Audio #5
ID : 6
Format : AC-3
Format/Info : Audio Coding 3
Mode extension : CM (complete main)
Format settings, Endianness : Big
Codec ID : A_AC3
Duration : 1h 56mn
Bit rate mode : Constant
Bit rate : 640 Kbps
Channel count : 6 channels
Channel positions : Front: L C R, Side: L R, LFE
Sampling rate : 48.0 KHz
Bit depth : 16 bits
Compression mode : Lossy
Stream size : 534 MiB (6%)
Title : Английский
Language : English
Default : No
Forced : No
Audio #6
ID : 7
Format : AC-3
Format/Info : Audio Coding 3
Mode extension : CM (complete main)
Format settings, Endianness : Big
Codec ID : A_AC3
Duration : 1h 56mn
Bit rate mode : Constant
Bit rate : 640 Kbps
Channel count : 6 channels
Channel positions : Front: L C R, Side: L R, LFE
Sampling rate : 48.0 KHz
Bit depth : 16 bits
Compression mode : Lossy
Stream size : 534 MiB (6%)
Title : Украинский
Language : Ukrainian
Default : No
Forced : No
Text
ID : 8
Format : UTF-8
Codec ID : S_TEXT/UTF8
Codec ID/Info : UTF-8 Plain Text
Title : русские
Language : Russian
Default : No
Forced : No
Menu
00:00:00.000 : en:00:00:00.000
00:03:54.526 : en:00:03:54.526
00:08:45.356 : en:00:08:45.356
00:13:14.125 : en:00:13:14.125
00:18:08.377 : en:00:18:08.377
00:20:57.006 : en:00:20:57.006
00:24:20.750 : en:00:24:20.750
00:28:49.059 : en:00:28:49.059
00:31:41.650 : en:00:31:41.650
00:36:18.050 : en:00:36:18.050
00:40:13.744 : en:00:40:13.744
00:43:46.289 : en:00:43:46.289
00:48:44.380 : en:00:48:44.380
00:53:55.898 : en:00:53:55.898
00:57:04.420 : en:00:57:04.420
01:01:05.661 : en:01:01:05.661
01:04:21.690 : en:01:04:21.690
01:10:43.113 : en:01:10:43.113
01:16:28.125 : en:01:16:28.125
01:20:04.756 : en:01:20:04.756
01:22:55.136 : en:01:22:55.136
01:26:14.211 : en:01:26:14.211
01:29:15.475 : en:01:29:15.475
01:33:30.063 : en:01:33:30.063
01:36:31.786 : en:01:36:31.786
01:38:41.582 : en:01:38:41.582
01:43:45.426 : en:01:43:45.426
01:46:09.113 : en:01:46:09.113
01:51:04.408 : en:01:51:04.408
[Профиль] [ЛС]
Кто просматривает тему:

Показать сообщения:    

Текущее время: Сегодня 18:50

Часовой пояс: GMT



Вы не можете начинать темы
Вы не можете отвечать на сообщения
Вы не можете редактировать свои сообщения
Вы не можете удалять свои сообщения
Вы не можете голосовать в опросах
Вы не можете прикреплять файлы к сообщениям
Вы не можете скачивать файлы