Гран Торино / Gran Torino (Клинт Иствуд / Clint Eastwood) [2008, США, драма, криминал, HDRip] AVO (Гаврилов)

 
Автор Сообщение

TorrentFilm ®

Пол:

Стаж: 1 год 11 месяцев

Сообщений: 7741



Награды: Нет

Торрент-статистика

Создавать темы 23-Янв-2015 00:00

[Цитировать]

Гран Торино / Gran Torino
Страна: США
Жанр: драма, криминал
Год выпуска: 2008
Продолжительность: 01:56:40
Перевод: Авторский (одноголосый закадровый) Гаврилов
Cубтитры: нет
Оригинальная аудиодорожка: нет
Режиссер: Клинт Иствуд / Clint Eastwood
В ролях: Клинт Иствуд, Кори Хардрикт, Би Ванг, Эни Хи, Брайан Хейли, Джеральдин Хьюз, Дрима Уокер, Брайан Хау, Джон Кэрролл Линч
Описание: Вышедший на пенсию автомеханик Уолт Ковальски проводит дни, делая что-то по дому, попивая пиво и раз в месяц заходя к парикмахеру. И хотя последним желанием его недавно почившей жены было совершение им исповеди, Уолту, ожесточившемуся ветерану Корейской войны, всегда держащему свою винтовку наготове, признаваться в общем-то не в чем. Да и нет никого, кому бы он доверял больше, чем своей собаке Дейзи.
Все те люди, коих он некогда называл своими соседями, либо переехали, либо ушли в мир иной, а на смену им пришли иммигранты-хмоны, которых он откровенно презирает. Противясь буквально всему, во что упирается его взгляд, — покосившиеся карнизы, заросшие лужайки домов и лица иностранцев повсюду; бесцельно шатающиеся шайки подростков, состоящие из хмонов, латиносов и афро-американцев, полагающих, что окрестный мир целиком принадлежит им одним; неоперившиеся чужаки, в которых оказалось превратились собственные дети и внуки, — Уолт просто неспешно проживает остаток своей жизни. До той самой ночи, когда кто-то попытается украсть его «Гран Торино».

Сэмпл: http://multi-up.com/1028145
Качество видео: HDRip (исходник не известен)
Формат видео: AVI
Видео: Xvid 720x304 23.98fps 1 335 Kbps
Аудио: Dolby AC3 48000Hz 6ch 448kbps

MediaInfo

Format : AVI
Format/Info : Audio Video Interleave
File size : 1.46 GiB
Duration : 1h 56mn
Overall bit rate : 1 793 Kbps
Writing application : VirtualDubModRus 1.5.10.2 (build 2542/release)
Writing library : VirtualDubMod build 2542/release
Video
ID : 0
Format : MPEG-4 Visual
Format profile : Advanced Simple@L5
Format settings, BVOP : Yes
Format settings, QPel : No
Format settings, GMC : No warppoints
Format settings, Matrix : Custom
Muxing mode : Packed bitstream
Codec ID : XVID
Codec ID/Hint : XviD
Duration : 1h 56mn
Bit rate : 1 335 Kbps
Width : 720 pixels
Height : 304 pixels
Display aspect ratio : 2.35:1
Frame rate : 23.976 fps
Resolution : 8 bits
Colorimetry : 4:2:0
Scan type : Progressive
Bits/(Pixel*Frame) : 0.254
Stream size : 1.09 GiB (74%)
Writing library : XviD 65
Audio
ID : 1
Format : AC-3
Format/Info : Audio Coding 3
Codec ID : 2000
Duration : 1h 56mn
Bit rate mode : Constant
Bit rate : 448 Kbps
Channel(s) : 6 channels
Channel positions : Front: L C R, Surround: L R, LFE
Sampling rate : 48.0 KHz
Stream size : 374 MiB (25%)
Alignment : Split accross interleaves
Interleave, duration : 42 ms (1.00 video frame)
Interleave, preload duration : 500 ms

Скриншот c названием фильма

Скриншоты

[Профиль] [ЛС]

Создавать темы 06-Авг-2015 22:47 (спустя 6 месяцев 14 дней)

Топик был перенесен из форума Фильмы до 2014 года в форум Фильмы до 2012 года
sergej644
 

Создавать темы 12-Июн-2016 08:51 (спустя 1 год 4 месяца)

Топик был перенесен из форума Фильмы 2011 года в форум Фильмы 2006-2008 года
Russian Mafia
 
Кто просматривает тему:

Показать сообщения:    

Текущее время: Сегодня 15:57

Часовой пояс: GMT



Вы не можете начинать темы
Вы не можете отвечать на сообщения
Вы не можете редактировать свои сообщения
Вы не можете удалять свои сообщения
Вы не можете голосовать в опросах
Вы не можете прикреплять файлы к сообщениям
Вы не можете скачивать файлы