Грань будущего / Edge of Tomorrow (2014) BDRip 720p | Лицензия

 
Автор Сообщение

sergej644 ®

Пол:

Стаж: 4 года 11 месяцев

Сообщений: 6043

Откуда: Soviet Union



Награды: Нет

Торрент-статистика

Создавать темы 09-Фев-2015 06:40

[Цитировать]

Грань будущего / Edge of Tomorrow Год выпуска: 2014
Страна: США, Австралия
Производство: 3 Arts Entertainment, Translux, Village Roadshow Pictures, Viz Media, Warner Bros. Pictures
Слоган: «Живи. Умри. И снова»
Жанр: фантастика, боевик
Продолжительность: 01:53:29
Перевод:
Профессиональный (полное дублирование) Blu-ray CEE
Авторский (Дмитрий Есарев)
Субтитры: Русские {Forced, Full}, украинские {Full}, английские {Full, SDH, SDH-Colored}-Режиссер: Даг Лайман / Doug Liman
Сценарий: Кристофер МакКуорри / Christopher McQuarrie, Джез Баттеруорт / Jez Butterworth, Джон-Генри Баттеруорт / John-Henry Butterworth, Хироси Сакуразака / Hiroshi Sakurazaka
Продюсер: Джейсон Хоффс / Jason Hoffs, Грегори Джейкобс / Gregory Jacobs, Том Лассалли / Tom Lassally, Джеффри Сильвер / Jeffrey Silver, Эрвин Стофф / Erwin Stoff
Оператор: Дион Биби / Dion Beebe
Композитор: Кристоф Бек / Christophe Beck-В ролях: Том Круз (Cage), Эмили Блант (Rita), Билл Пэкстон (Master Sergeant Farell), Брендан Глисон (General Brigham), Джонас Армстронг (Skinner), Тони Вэй (Kimmel), Кик Гарри (Griff), Франц Драмех (Ford), Драгомир Мрсич (Kuntz), Шарлотта Райли (Nance), Масаёси Ханеда (Takeda), Теренс Мэйнард (Cruel Sergeant)
Дублёры: Всеволод Кузнецов (Cage), Мария Фортунатова (Rita), Андрей Градов (Master Sergeant Farell), Алексей Рязанцев (General Brigham), Борис Шувалов (Skinner), Сергей Чихачев (Kimmel), Илья Исаев (Griff), Элиза Мартиросова, Андрей Казанцев (Dr. Carter)-Бюджет: $178 000 000
Сборы в США: $100 206 256
Сборы в России: $20 837 481
Сборы в мире: $369 206 256
Мировая премьера: 28 мая 2014
Премьера (РФ): 5 июня 2014, «Каро-Премьер»
Релиз на DVD: 2 октября 2014, «CP Дистрибуция»
Релиз на Blu-ray: 2 октября 2014, «CP Дистрибуция»-Описание: В недалёком будущем раса инопланетян вторгается на Землю. Никакая армия в мире не может противостоять им. Майор Уильям Кейдж умирает в бою, но случается невозможное - он оказывается во временной петле. Раз за разом он попадает в один и тот же бой, сражается и умирает... снова и снова. И каждое повторяющееся сражение приближает его к разгадке того, как победить врага.-Рейтинг:

MPAA: PG-13 - Детям до 13 лет просмотр не желателен-Видеоряд от VietHD
Сборка рипа - Talian70
Формат: Matroska
Видео: 1280x534 at 23.976 fps, x264@L4.1, ~6232 kbps avg
Aудио#1: Russian: 48 kHz, AC3, 3/2 (L,C,R,l,r) + LFE ch, ~640.00 kbps avg |Дубляж, Blu-ray CEE|
Aудио#2: Ukrainian: 48 kHz, AC3, 3/2 (L,C,R,l,r) + LFE ch, ~640.00 kbps avg |Дубляж, Blu-ray CEE|
Aудио#3: Russian: 48 kHz, AC3, 3/2 (L,C,R,l,r) + LFE ch, ~640.00 kbps avg |Авторский, Д. Есарев|
Aудио#4: English: 48 kHz, AC3, 3/2 (L,C,R,l,r) + LFE ch, ~640.00 kbps avg-

Знаете ли Вы, что...

Фильм снят по мотивам романа Хироси Сакурадзаки «Всё, что тебе нужно - это убивать» (All you need is kill, 2004).
В начале фильма среди кадров новостных сводок можно увидеть ролик с падением челябинского метеорита в 2013 году, который показан как часть вторжения инопланетян. При чём, эти кадры выдавались, как заснятые на территории Германии, о чём гласит надпись «breaking news: panic as meteor strikes germany» внизу экрана.
Том Круз был одним из первых людей, узнавший о беременности Эмили Блант. У съемочной группы и актеров был промежуток в несколько месяцев между основными и повторными съемками. В этот период Эмили Блант забеременела. Она решила никому не рассказывать об этом. Срок ее беременности составлял всего несколько недель, когда актрисе нужно было вновь приступить к съемкам. Тома Круза сильно смутил тот факт, что Блант отказалась выполнять свои трюки самостоятельно во время повторных съемок, с учетом того, что в период основных съемок она все делала сама, после чего Блант и рассказала ему о своем положении.
Первоначально главную роль предлагали Брэду Питту, но тот отклонил предложение.
Беренис Бежо рассматривалась на роль Риты Вратаски.
Том Круз начал заниматься пре-продакшном 20 июля 2012 года, менее чем через неделю после окончания работы над фильмом «Обливион» (2013).
Том Круз потратил более $ 100,000 на вечеринку, посвященную окончанию съемок фильма для актеров и съемочной группы. Сам он на вечеринке не присутствовал, так как в это время заканчивал работу над своими сценами в фильме.
В финальные титры не попал сценарист Данте Харпер, который в 2010 году продал сценарий этого фильма студии Warner Bros. за сумму, превышающую 1 миллион долларов.
Большая часть съемок фильма проходила на тех же съемочных площадках, где снимались фильмы о Гарри Поттере.
Эмили Блант призналась, что после того, как на нее надели металлический костюм, она расплакалась, потому что он был очень тяжелым (около 38 кг) и ей предстояло 5 месяцев сниматься в нем в экшн-сценах.
В оригинальной истории речь идет о вторжении в Токио. Рита – американка, а Кейдж – японец по имени Кейдзи Кирия, который к концу истории получает прозвище «Killer Cage».
Персонаж Джереми Пивена был добавлен во время повторных съемок, но в итоге все сцены с его участием были вырезаны во время монтажа.
Для съемок картины было изготовлено 70 экзокостюмов в различной комплектации, вес которых составлял от 27 до 57 килограммов.
Вертолет, который садился на Трафальгарской площади, принадлежит Королевским военно-воздушным силам Великобритании и за его штурвалом сидели профессиональные военные.
Хотя сюжет фильма и укладывается всего в два дня, пусть и повторяющихся многократно, художники создали для съемок 47 съемочных площадок, в том числе гигантский пляж, куда было завезено 1300 тонн песка.
Когда Кейдж грубит главному на физподготовке, и их заставляют отжиматься, можно заметить, что все отжимаются честно, а рядовой Киммел - стоя на коленях.
В начале фильма голос за кадром говорит: «Они распространились от Гамбурга по всей Европе». Гамбург расположен недалеко от северного побережья Германии, но на карте показывается, что распространение началось откуда-то из центра Европы, около Мюнхена.
На карте, которую показывают в начале фильма, Любляна отмечена как столица Хорватии, хотя на самом деле она является столицей Словении.
Во время первого разговора с генералом Бригхэмом, одна из пуговиц на куртке Кейджа расстегнута. В следующем кадре его куртка застегнута на все пуговицы.
На карте в начале фильма видно, что столица Венгрии - Будапешт, расположена не там, где находится на самом деле.

MI

General
Unique ID : 174417576566541307961470595381722980071 (0x83379A7563463EA2926670C325CD9EE7)
Complete name : Edge.of.Tomorrow.2014.720p.BluRay.DD5.1.x264-Talian-.mkv
Format : Matroska
Format version : Version 2
File size : 7.08 GiB
Duration : 1h 53mn
Overall bit rate : 8 932 Kbps
Movie name : Edge of Tomorrow -Talian-
Encoded date : UTC 2014-09-27 06:25:04
Writing application : mkvmerge v5.7.0 ('The Whirlwind') built on Jul 8 2012 20:08:51
Writing library : libebml v1.2.3 + libmatroska v1.3.0
Video
ID : 1
Format : AVC
Format/Info : Advanced Video Codec
Format profile : High@L4.1
Format settings, CABAC : Yes
Format settings, ReFrames : 12 frames
Codec ID : V_MPEG4/ISO/AVC
Duration : 1h 53mn
Bit rate : 6 194 Kbps
Width : 1 280 pixels
Height : 534 pixels
Display aspect ratio : 2.40:1
Frame rate mode : Constant
Frame rate : 23.976 fps
Color space : YUV
Chroma subsampling : 4:2:0
Bit depth : 8 bits
Scan type : Progressive
Bits/(Pixel*Frame) : 0.378
Stream size : 4.91 GiB (69%)
Title : VietHD
Writing library : x264 core 142 r2479kMod dd79a61
Encoding settings : cabac=1 / ref=12 / deblock=1:-3:-3 / analyse=0x3:0x133 / me=umh / subme=10 / psy=1 / fade_compensate=0.00 / psy_rd=0.90:0.00 / mixed_ref=1 / me_range=48 / chroma_me=1 / trellis=2 / 8x8dct=1 / cqm=0 / deadzone=21,11 / fast_pskip=0 / chroma_qp_offset=-2 / threads=6 / lookahead_threads=1 / sliced_threads=0 / nr=0 / decimate=0 / interlaced=0 / bluray_compat=0 / constrained_intra=0 / fgo=0 / bframes=12 / b_pyramid=2 / b_adapt=2 / b_bias=0 / direct=3 / weightb=1 / open_gop=0 / weightp=2 / keyint=250 / keyint_min=23 / scenecut=40 / intra_refresh=0 / rc_lookahead=60 / rc=crf / mbtree=0 / crf=15.5000 / qcomp=0.65 / qpmin=0 / qpmax=69 / qpstep=4 / vbv_maxrate=62500 / vbv_bufsize=78125 / crf_max=0.0 / nal_hrd=none / filler=0 / ip_ratio=1.30 / pb_ratio=1.20 / aq=1:0.65 / zones=152,280,crf=12/357,530,crf=12/531,600,crf=10/601,752,crf=12/778,1006,crf=10/1404,1562,crf=12/2340,2390,crf=13/2391,2452,crf=12/2504,2563,crf=13/2564,2617,crf=12/2704,2850,crf=13/2851,2953,crf=10/2954,3000,crf=8/3001,3132,crf=12/3654,3749,crf=12/19996,20138,crf=15/77833,77975,crf=15/91778,92127,crf=15/96146,96330,crf=12/105558,105851,crf=15/105852,106140,crf=14/106141,108577,crf=14/117773,118830,crf=15/119528,119612,crf=15/119965,120014,crf=15/122653,123359,crf=15/126352,126603,crf=14/126960,127075,crf=14/128496,128731,crf=14/129151,129272,crf=15/130107,130790,crf=15/130791,130951,crf=14/130952,148150,crf=15/152156,155060,crf=15/163104,163220,crf=11
Language : English
Default : Yes
Forced : No
Color primaries : BT.709
Transfer characteristics : BT.709
Matrix coefficients : BT.709
Audio #1
ID : 2
Format : AC-3
Format/Info : Audio Coding 3
Mode extension : CM (complete main)
Format settings, Endianness : Big
Codec ID : A_AC3
Duration : 1h 53mn
Bit rate mode : Constant
Bit rate : 640 Kbps
Channel(s) : 6 channels
Channel positions : Front: L C R, Side: L R, LFE
Sampling rate : 48.0 KHz
Bit depth : 16 bits
Compression mode : Lossy
Stream size : 520 MiB (7%)
Title : DUB-Blu-ray CEE
Language : Russian
Default : Yes
Forced : No
Audio #2
ID : 3
Format : AC-3
Format/Info : Audio Coding 3
Mode extension : CM (complete main)
Format settings, Endianness : Big
Codec ID : A_AC3
Duration : 1h 53mn
Bit rate mode : Constant
Bit rate : 640 Kbps
Channel(s) : 6 channels
Channel positions : Front: L C R, Side: L R, LFE
Sampling rate : 48.0 KHz
Bit depth : 16 bits
Compression mode : Lossy
Stream size : 520 MiB (7%)
Title : DUB-Blu-ray CEE
Language : Ukrainian
Default : No
Forced : No
Audio #3
ID : 4
Format : AC-3
Format/Info : Audio Coding 3
Mode extension : CM (complete main)
Format settings, Endianness : Big
Codec ID : A_AC3
Duration : 1h 53mn
Bit rate mode : Constant
Bit rate : 640 Kbps
Channel(s) : 6 channels
Channel positions : Front: L C R, Side: L R, LFE
Sampling rate : 48.0 KHz
Bit depth : 16 bits
Compression mode : Lossy
Stream size : 520 MiB (7%)
Title : VO-Есарев
Language : Russian
Default : No
Forced : No
Audio #4
ID : 5
Format : AC-3
Format/Info : Audio Coding 3
Mode extension : CM (complete main)
Format settings, Endianness : Big
Codec ID : A_AC3
Duration : 1h 53mn
Bit rate mode : Constant
Bit rate : 640 Kbps
Channel(s) : 6 channels
Channel positions : Front: L C R, Side: L R, LFE
Sampling rate : 48.0 KHz
Bit depth : 16 bits
Compression mode : Lossy
Stream size : 520 MiB (7%)
Title : Original
Language : English
Default : No
Forced : No
Text #1
ID : 6
Format : UTF-8
Codec ID : S_TEXT/UTF8
Codec ID/Info : UTF-8 Plain Text
Title : Sub-Forced
Language : Russian
Default : Yes
Forced : No
Text #2
ID : 7
Format : UTF-8
Codec ID : S_TEXT/UTF8
Codec ID/Info : UTF-8 Plain Text
Title : Sub-full
Language : Russian
Default : No
Forced : No
Text #3
ID : 8
Format : UTF-8
Codec ID : S_TEXT/UTF8
Codec ID/Info : UTF-8 Plain Text
Title : Sub-full
Language : Ukrainian
Default : No
Forced : No
Text #4
ID : 9
Format : UTF-8
Codec ID : S_TEXT/UTF8
Codec ID/Info : UTF-8 Plain Text
Title : Sub-full
Language : English
Default : No
Forced : No
Text #5
ID : 10
Format : UTF-8
Codec ID : S_TEXT/UTF8
Codec ID/Info : UTF-8 Plain Text
Title : Sub-SDH
Language : English
Default : No
Forced : No
Text #6
ID : 11
Format : UTF-8
Codec ID : S_TEXT/UTF8
Codec ID/Info : UTF-8 Plain Text
Title : Sub-SDH-COLORED
Language : English
Default : No
Forced : No
Menu
00:00:00.000 : en:00:00:00.000
00:10:28.169 : en:00:10:28.169
00:17:39.100 : en:00:17:39.100
00:24:50.197 : en:00:24:50.197
00:35:57.947 : en:00:35:57.947
00:46:27.284 : en:00:46:27.284
00:54:34.771 : en:00:54:34.771
01:04:59.562 : en:01:04:59.562
01:12:53.077 : en:01:12:53.077
01:23:08.901 : en:01:23:08.901
01:32:34.132 : en:01:32:34.132
01:42:53.584 : en:01:42:53.584
01:45:46.215 : en:01:45:46.215

Скриншоты

-
[Профиль] [ЛС]
Показать сообщения:    

Текущее время: Сегодня 14:45

Часовой пояс: GMT



Вы не можете начинать темы
Вы не можете отвечать на сообщения
Вы не можете редактировать свои сообщения
Вы не можете удалять свои сообщения
Вы не можете голосовать в опросах
Вы не можете прикреплять файлы к сообщениям
Вы не можете скачивать файлы