Грань будущего / Edge of Tomorrow (2014) BDRip 720p от Hot-Film | Лицензия

 
Автор Сообщение

sergej644 ®

Пол:

Стаж: 4 года 11 месяцев

Сообщений: 6041

Откуда: Soviet Union



Награды: Нет

Торрент-статистика

Создавать темы 09-Фев-2015 06:36

[Цитировать]

Информация о фильме
Название: Грань будущего
Оригинальное название: Edge of Tomorrow
Год выхода: 2014
Жанр: фантастика, боевик
Режиссер: Даг Лайман

В ролях: Том Круз, Эмили Блант, Билл Пэкстон, Брендан Глисон, Джонас Армстронг, Тони Вэй, Кик Гарри, Франц Драмех, Драгомир Мрсич
О ФИЛЬМЕ
В недалёком будущем раса инопланетян вторгается на Землю. Никакая армия в мире не может противостоять им. Майор Уильям Кейдж умирает в бою, но случается невозможное — он оказывается во временной петле. Раз за разом он попадает в один и тот же бой, сражается и умирает… снова и снова. И каждое повторяющееся сражение приближает его к разгадке того, как победить врага.

Страна: США / Австралия
Производство: 3 Arts Entertainment, Village Roadshow Pictures, Warner Bros. Pictures
Продолжительность: 01:53:29
Перевод: Дублированный (профессиональный) [Лицензия]
Файл
Качество: BDRip 720p
Видео: MPEG-4 AVC, 1280x534 (2.40:1) at 23.976 fps, 2693 kbps avg, 0.164 bit/pixel
Аудио: Русский, украинский, английский (АС3, 6 ch, 640 Кбит/с)
Субтитры: Русские (Forced, Full), украинские (Full), английские (Full, SDH, SDH Color)
Дополнительно: Сохранены оригинальные чаптеры как на Blu-Ray

Скриншоты


MI

x264 [info]: frame I:1289 Avg QP:14.68 size: 64670
x264 [info]: frame P:49257 Avg QP:18.48 size: 24373
x264 [info]: frame B:112713 Avg QP:20.64 size: 8937
x264 [info]: consecutive B-frames: 8.1% 7.9% 14.0% 26.0% 16.0% 23.6% 2.9% 1.5%
x264 [info]: mb I I16..4: 7.0% 74.3% 18.6%
x264 [info]: mb P I16..4: 2.8% 25.5% 3.2% P16..4: 28.4% 26.0% 6.6% 1.0% 0.1% skip: 6.5%
x264 [info]: mb B I16..4: 0.6% 3.8% 0.4% B16..8: 32.8% 18.4% 2.5% direct: 4.9% skip:36.7% L0:40.5% L1:45.7% BI:13.8%
-------------------------
General
Unique ID : 210426727773586394903172834419341052018 (0x9E4EB6AF44446543923DDC13FFC4C872)
Complete name : H:Edge.of.Tomorrow.2014.BD.720.Hot-Film.mkv
Format : Matroska
Format version : Version 2
File size : 3.66 GiB
Duration : 01:53:29
Overall bit rate : 4 615 Kbps
Encoded date : UTC 2014-09-26 23:44:16
Writing application : mkvmerge v5.8.0 ('No Sleep / Pillow') built on Sep 2 2012 15:37:04
Writing library : libebml v1.2.3 + libmatroska v1.3.0
Attachment : Yes
Video
ID : 1
Format : AVC
Format/Info : Advanced Video Codec
Format profile : High@L4.1
Format settings, CABAC : Yes
Format settings, ReFrames : 9 frames
Codec ID : V_MPEG4/ISO/AVC
Duration : 1h 53mn
Bit rate : 2 693 Kbps
Width : 1 280 pixels
Height : 534 pixels
Display aspect ratio : 2.40:1
Frame rate mode : Constant
Frame rate : 23.976 fps
Color space : YUV
Chroma subsampling : 4:2:0
Bit depth : 8 bits
Scan type : Progressive
Bits/(Pixel*Frame) : 0.164
Stream size : 2.06 GiB (56%)
Writing library : x264 core 142 r2431 ac76440
Encoding settings : cabac=1 / ref=9 / deblock=1:-3:-3 / analyse=0x3:0x133 / me=umh / subme=11 / psy=1 / psy_rd=1.00:0.10 / mixed_ref=1 / me_range=32 / chroma_me=1 / trellis=2 / 8x8dct=1 / cqm=0 / deadzone=21,11 / fast_pskip=0 / chroma_qp_offset=-3 / threads=12 / lookahead_threads=2 / sliced_threads=0 / nr=0 / decimate=0 / interlaced=0 / bluray_compat=0 / constrained_intra=0 / bframes=7 / b_pyramid=2 / b_adapt=2 / b_bias=0 / direct=3 / weightb=1 / open_gop=0 / weightp=2 / keyint=240 / keyint_min=23 / scenecut=40 / intra_refresh=0 / rc_lookahead=40 / rc=2pass / mbtree=0 / bitrate=2693 / ratetol=1.0 / qcomp=0.60 / qpmin=0 / qpmax=69 / qpstep=4 / cplxblur=20.0 / qblur=0.5 / vbv_maxrate=50000 / vbv_bufsize=62500 / nal_hrd=none / filler=0 / ip_ratio=1.40 / pb_ratio=1.30 / aq=1:0.80
Language : English
Default : Yes
Forced : No
Audio #1
ID : 2
Format : AC-3
Format/Info : Audio Coding 3
Mode extension : CM (complete main)
Format settings, Endianness : Big
Codec ID : A_AC3
Duration : 1h 53mn
Bit rate mode : Constant
Bit rate : 640 Kbps
Channel(s) : 6 channels
Channel positions : Front: L C R, Side: L R, LFE
Sampling rate : 48.0 KHz
Bit depth : 16 bits
Compression mode : Lossy
Stream size : 520 MiB (14%)
Title : DUB
Language : Russian
Default : Yes
Forced : No
Audio #2
ID : 3
Format : AC-3
Format/Info : Audio Coding 3
Mode extension : CM (complete main)
Format settings, Endianness : Big
Codec ID : A_AC3
Duration : 1h 53mn
Bit rate mode : Constant
Bit rate : 640 Kbps
Channel(s) : 6 channels
Channel positions : Front: L C R, Side: L R, LFE
Sampling rate : 48.0 KHz
Bit depth : 16 bits
Compression mode : Lossy
Stream size : 520 MiB (14%)
Title : DUB UKR
Language : Ukrainian
Default : No
Forced : No
Audio #3
ID : 4
Format : AC-3
Format/Info : Audio Coding 3
Mode extension : CM (complete main)
Format settings, Endianness : Big
Codec ID : A_AC3
Duration : 1h 53mn
Bit rate mode : Constant
Bit rate : 640 Kbps
Channel(s) : 6 channels
Channel positions : Front: L C R, Side: L R, LFE
Sampling rate : 48.0 KHz
Bit depth : 16 bits
Compression mode : Lossy
Stream size : 520 MiB (14%)
Title : Original
Language : English
Default : No
Forced : No
Text #1
ID : 5
Format : UTF-8
Codec ID : S_TEXT/UTF8
Codec ID/Info : UTF-8 Plain Text
Title : Forced
Language : Russian
Default : Yes
Forced : Yes
Text #2
ID : 6
Format : UTF-8
Codec ID : S_TEXT/UTF8
Codec ID/Info : UTF-8 Plain Text
Title : Full
Language : Russian
Default : No
Forced : No
Text #3
ID : 7
Format : UTF-8
Codec ID : S_TEXT/UTF8
Codec ID/Info : UTF-8 Plain Text
Title : Full
Language : Ukrainian
Default : No
Forced : No
Text #4
ID : 8
Format : UTF-8
Codec ID : S_TEXT/UTF8
Codec ID/Info : UTF-8 Plain Text
Title : Full
Language : English
Default : No
Forced : No
Text #5
ID : 9
Format : UTF-8
Codec ID : S_TEXT/UTF8
Codec ID/Info : UTF-8 Plain Text
Title : SDH
Language : English
Default : No
Forced : No
Text #6
ID : 10
Format : UTF-8
Codec ID : S_TEXT/UTF8
Codec ID/Info : UTF-8 Plain Text
Title : SDH Color
Language : English
Default : No
Forced : No
Menu
00:00:00.000 : :Chapter 01
00:10:28.169 : :Chapter 02
00:17:39.100 : :Chapter 03
00:24:50.197 : :Chapter 04
00:35:57.947 : :Chapter 05
00:46:27.284 : :Chapter 06
00:54:34.771 : :Chapter 07
01:04:59.562 : :Chapter 08
01:12:53.077 : :Chapter 09
01:23:08.901 : :Chapter 10
01:32:34.132 : :Chapter 11
01:42:53.584 : :Chapter 12
01:45:46.215 : :Chapter 13
[Профиль] [ЛС]
Показать сообщения:    

Текущее время: Сегодня 18:53

Часовой пояс: GMT



Вы не можете начинать темы
Вы не можете отвечать на сообщения
Вы не можете редактировать свои сообщения
Вы не можете удалять свои сообщения
Вы не можете голосовать в опросах
Вы не можете прикреплять файлы к сообщениям
Вы не можете скачивать файлы