Гранчестер / Grantchester [S01] (2014) HDTVRip | L2

 
Автор Сообщение

Белочка ®

Пол:

Стаж: 5 лет 1 месяц

Сообщений: 2089



Награды: 1 (Подробнее)

Girls (Количество: 1)
Торрент-статистика

Создавать темы 20-Ноя-2014 23:04

[Цитировать]

Информация о фильме
Название: Гранчестер
Оригинальное название: Grantchester
Год выхода: 2014
Жанр: драма, детектив
Режиссер: Гарри Брэдбир, Джилл Робертсон, Тим Файвелл
В ролях: Джеймс Нортон, Робсон Грин, Морвен Кристи, Тесса Пик-Джонс, Аль Уивер, Том Остин, Грегг Лоу, Фелина Рогган, Кейси Эйнсуорт, Крис Бирн
О фильме:
Действие происходит в 1953 году в живописной деревушке Гранчестер в Кембриджшире. Главный герой — Сидни Чемберс, харизматичный и очаровательный викарий, который начинает собственное расследование, когда один из его прихожан умирает при подозрительных обстоятельствах.
Официальный сайт
Страна: Великобритания
Студия: Loveday, Masterpiece co-production
Продолжительность: ~45 минут серия
Перевод: Любительский (двухголосый закадровый) [VictoryFilms]
Файл
Кодек: XviD / MP3
Качество: HDTVRip
Видео: xvid, 720x400 (16:9), 25.000 fps, 1 179 Kbps (0.164 bit/pixel)
Звук: MP3, 48.0 KHz, 2 ch, 192 Kbps, CBR

MediaInfo

General
Complete name : GrantchesterGrantchester.S01.Victory-FilmsГранчестер Grantchester — 2014grantchester.1x01.-Victory-Films.avi
Format : AVI
Format/Info : Audio Video Interleave
File size : 455 MiB
Duration : 45mn 57s
Overall bit rate : 1 384 Kbps
Writing application : Lavf54.63.104
Video
ID : 0
Format : xvid
Codec ID : xvid
Duration : 45mn 57s
Bit rate : 1 179 Kbps
Width : 720 pixels
Height : 400 pixels
Display aspect ratio : 16:9
Frame rate : 25.000 fps
Bits/(Pixel*Frame) : 0.164
Stream size : 388 MiB (85%)
Audio
ID : 1
Format : MPEG Audio
Format version : Version 1
Format profile : Layer 3
Mode : Joint stereo
Mode extension : MS Stereo
Codec ID : 55
Codec ID/Hint : MP3
Duration : 45mn 57s
Bit rate mode : Constant
Bit rate : 192 Kbps
Channel(s) : 2 channels
Sampling rate : 48.0 KHz
Compression mode : Lossy
Stream size : 63.1 MiB (14%)
Alignment : Aligned on interleaves
Interleave, duration : 24 ms (0.60 video frame)
[Профиль] [ЛС]
Показать сообщения:    

Текущее время: Сегодня 14:42

Часовой пояс: GMT



Вы не можете начинать темы
Вы не можете отвечать на сообщения
Вы не можете редактировать свои сообщения
Вы не можете удалять свои сообщения
Вы не можете голосовать в опросах
Вы не можете прикреплять файлы к сообщениям
Вы не можете скачивать файлы