Гранчестер / Grantchester [01x01] (2014) HDTVRip | L2

 
Автор Сообщение

Белочка ®

Пол:

Стаж: 5 лет 1 месяц

Сообщений: 2089



Награды: 1 (Подробнее)

Girls (Количество: 1)
Торрент-статистика

Создавать темы 14-Окт-2014 18:34

[Цитировать]

Информация о фильме
Название: Гранчестер
Оригинальное название: Grantchester
Год выхода: 2014
Жанр: драма, детектив
Режиссер: Гарри Брэдбир, Джилл Робертсон, Тим Файвелл
В ролях: Джеймс Нортон, Робсон Грин, Морвен Кристи, Тесса Пик-Джонс, Аль Уивер, Том Остин, Грегг Лоу, Фелина Рогган, Кейси Эйнсуорт, Крис Бирн
О фильме:
Действие происходит в 1953 году в живописной деревушке Гранчестер в Кембриджшире. Главный герой — Сидни Чемберс, харизматичный и очаровательный викарий, который начинает собственное расследование, когда один из его прихожан умирает при подозрительных обстоятельствах.
Официальный сайт
Страна: Великобритания
Студия: Loveday, Masterpiece co-production
Продолжительность: ~45 минут серия
Перевод: Любительский (двухголосый закадровый) [VictoryFilms] / Оригинал (английский)
Файл
Кодек: XviD / MP3
Качество: HDTVRip
Видео: MPEG4, XviD, 640x360 (16:9), 25.000 fps, 1 026 Kbps (0.178 bit/pixel)
Звук:
Аудио #1: MP3, 44.1 KHz, 2 ch, 128 Kbps, CBR
Аудио #2: MP3, 48.0 KHz, 2 ch, 128 Kbps, VBR

MediaInfo

General
Complete name : /Grantchester.S01E01.Victory-Films.avi
Format : AVI
Format/Info : Audio Video Interleave
File size : 422 MiB
Duration : 45mn 25s
Overall bit rate mode : Variable
Overall bit rate : 1 299 Kbps
Writing application : VirtualDubMod 1.5.10.2 (build 2540/release)
Writing library : VirtualDubMod build 2540/release
Video
ID : 0
Format : MPEG-4 Visual
Format profile : Advanced Simple@L5
Format settings, BVOP : 2
Format settings, QPel : No
Format settings, GMC : No warppoints
Format settings, Matrix : Default (H.263)
Codec ID : XVID
Codec ID/Hint : XviD
Duration : 45mn 25s
Bit rate : 1 026 Kbps
Width : 640 pixels
Height : 360 pixels
Display aspect ratio : 16:9
Frame rate : 25.000 fps
Color space : YUV
Chroma subsampling : 4:2:0
Bit depth : 8 bits
Scan type : Progressive
Compression mode : Lossy
Bits/(Pixel*Frame) : 0.178
Stream size : 333 MiB (79%)
Writing library : XviD 64
Audio #1
ID : 1
Format : MPEG Audio
Format version : Version 1
Format profile : Layer 3
Codec ID : 55
Codec ID/Hint : MP3
Duration : 45mn 25s
Bit rate mode : Constant
Bit rate : 128 Kbps
Channel(s) : 2 channels
Sampling rate : 44.1 KHz
Compression mode : Lossy
Stream size : 41.6 MiB (10%)
Alignment : Split accross interleaves
Interleave, duration : 40 ms (1.00 video frame)
Interleave, preload duration : 500 ms
Audio #2
ID : 2
Format : MPEG Audio
Format version : Version 1
Format profile : Layer 3
Mode : Joint stereo
Mode extension : MS Stereo
Codec ID : 55
Codec ID/Hint : MP3
Duration : 45mn 25s
Bit rate mode : Variable
Bit rate : 128 Kbps
Channel(s) : 2 channels
Sampling rate : 48.0 KHz
Compression mode : Lossy
Stream size : 41.6 MiB (10%)
Alignment : Aligned on interleaves
Interleave, duration : 24 ms (0.60 video frame)
Interleave, preload duration : 490 ms
[Профиль] [ЛС]
Показать сообщения:    

Текущее время: Сегодня 03:05

Часовой пояс: GMT



Вы не можете начинать темы
Вы не можете отвечать на сообщения
Вы не можете редактировать свои сообщения
Вы не можете удалять свои сообщения
Вы не можете голосовать в опросах
Вы не можете прикреплять файлы к сообщениям
Вы не можете скачивать файлы