Граница / Frontiere(s) / Frontier(s) (Эмилио Арагон / Emilio Aragon) [2007, Франция, Швейцария, ужасы, триллер, BDRip] AVO (Михаил Иванов)

 
Автор Сообщение

TorrentFilm ®

Пол:

Стаж: 2 года

Сообщений: 7741



Награды: Нет

Торрент-статистика

Создавать темы 27-Фев-2016 00:08

[Цитировать]

Граница / Frontière(s) / Frontier(s) / RUS Transfer
Страна: Франция, Швейцария
Студия: BR Films, Cartel Productions, Chemin Vert, Europa Corp., Pacific Films
Жанр: Ужасы, триллер
Год выпуска: 2007
Продолжительность: 01:48:09
Перевод: Авторский (одноголосый закадровый) Михаил Иванов
Оригинальная аудиодорожка: нет
Режиссер: Ксавье Жанс / Xavier Gens
Продюсер: Люк Бессон
В ролях: Карина Теста, Самюэль Ле Бьян, Эстель Лефебюр, Орельен Вик, Давид Саракино, Чемс Дамани, Мод Форже, Амели Доре, Розин Фавей, Адель Беншериф, Жоэль Лефрансуа, Патрик Лигарде, Жан-Пьер Жорри, Янник Даан, Жан-Филипп Гудруа
Описание: Преступная банда после ряда дерзких ограблений скрывается от правосудия в близлежащих лесах. Скитаясь в поисках временно прибежища, они выходят к мотелю. Хозяева спасительного пристанища не отличаются гостеприимством. Но даже самые страшные фантазии не в состоянии сравниться с ожидающей несчастных реальностью. Совсем скоро неудавшиеся бандиты поймут, что стали пленниками каннибалов, которые уготовили своим постояльцам ужасную смерть…
Дополнительная информация:
Автор релиза - ylnian
За выделение чистого голоса Михаила Иванова и сборку дороги спасибо rammzez
Источник для рипа - Blu-Ray (RUS) - http://torrentfilm.net/forum/viewtopic.php?t=5175265


Сэмпл: https://yadi.sk/i/_AFYwld4pJyjU
Трейлер: http://www.kinopoisk.ru/film/266142/video/7266/
Качество видео: BDRip
Формат видео: AVI
Видео: XviD, 720x304 (2,35:1), 23.976 fps, 1478 kbps, 0.282 bit/pixel
Аудио: Русский AC3, 48000 Гц, 6ch, 448 kbps - AVO

MediaInfo

Общее
Полное имя : E:\Frontiere(s).2007.BDRip-ylnian.avi
Формат : AVI
Формат/Информация : Audio Video Interleave
Размер файла : 1,46 Гбайт
Продолжительность : 1 ч. 48 м.
Общий поток : 1935 Кбит/сек
Программа кодирования : VirtualDubMod 1.5.10.2 (build 2540/release)
Библиотека кодирования : VirtualDubMod build 2540/release
Видео
Идентификатор : 0
Формат : MPEG-4 Visual
Профиль формата : Advanced Simple@L5
Параметр BVOP формата : 1
Параметр QPel формата : Нет
Параметр GMC формата : Без точки перехода
Параметр матрицы формата : Default (MPEG)
Идентификатор кодека : XVID
Идентификатор кодека/Подсказка : XviD
Продолжительность : 1 ч. 48 м.
Битрейт : 1478 Кбит/сек
Ширина : 720 пикселей
Высота : 304 пикселя
Соотношение сторон : 2,35:1
Частота кадров : 23,976 (24000/1001) кадра/сек
Цветовое пространство : YUV
Субдискретизация насыщенности : 4:2:0
Битовая глубина : 8 бит
Тип развёртки : Прогрессивная
Метод сжатия : С потерями
Бит/(Пиксели*Кадры) : 0.282
Размер потока : 1,12 Гбайт (76%)
Библиотека кодирования : XviD 67
Аудио
Идентификатор : 1
Формат : AC-3
Формат/Информация : Audio Coding 3
Расширение режима : CM (complete main)
Параметр Endianness формата : Big
Идентификатор кодека : 2000
Продолжительность : 1 ч. 48 м.
Вид битрейта : Постоянный
Битрейт : 448 Кбит/сек
Каналы : 6 каналов
Расположение каналов : Front: L C R, Side: L R, LFE
Частота : 48,0 КГц
Частота кадров : 31,250 кадров/сек (1536 spf)
Метод сжатия : С потерями
Размер потока : 347 Мбайт (23%)
Выравнивание : Разделение по промежуткам
Продолжительность промежутка : 42 мс. (1,00 видеокадр)
Время предзагрузки промежутка : 500 мс.

Скриншот c названием фильма

Скриншоты

[Профиль] [ЛС]
Кто просматривает тему:

Форум Тема Автор Размер
Отечественные cериалы 1812-1815. Заграничный поход [01-04 из 04] (Павел Тупик, Андрей Верещагин) [2014, Документальный, драма, исторический, реконструкция] WEB-DLRip BOSS 2.85 GB
Документальные HD 1812-1815. Заграничный Поход. Серии 1-4 (из 4) (Павел Тупик, Андрей Верещагин) [2014, Документальный | Реконструкция, HDTV 720p] TorrentFilm 6.29 GB
BBC BBC: Horizon. Танцы на грани тьмы - это конец физики? / Horizon. Dancing in the Dark - The End of Physics? (Peter Leonard) [2015 г., Документальный, научно-познавательный, SATRip] skorpionN 696 MB
BBC BBC: Безграничная Римская империя с Мэри Бирд / Mary Beard Ultimate Rome Empire Without Limit [серии 1-4 из 4] (Chris Mitchell) [2015 г., Документальный, история, исследования, HDTVRip-AVC 720p] skorpionN 7.21 GB
Фантастика и фэнтези Андрей Белянин - Граничары 3: Клан Белого Волка (2016) MP3 Swager 265 MB
Фантастика и фэнтези Антология фантастики – Грани вселенной [сборник] (2015) MP3 Swager 2.42 GB
Фильмы (HD Rips | 720p, 1080p) Без границ (2015) WEB-DL 1080p | iTunes BOSS 3.23 GB
Фильмы (HD Rips | 720p, 1080p) Без границ (2015) WEB-DL 720p | iTunes BOSS 2.93 GB
Показать сообщения:    

Текущее время: Сегодня 11:53

Часовой пояс: GMT



Вы не можете начинать темы
Вы не можете отвечать на сообщения
Вы не можете редактировать свои сообщения
Вы не можете удалять свои сообщения
Вы не можете голосовать в опросах
Вы не можете прикреплять файлы к сообщениям
Вы не можете скачивать файлы