Граница / Frontiere(s) (2007) BDRip 720p от R.G. HD-Films | 60 fps | D

 
Автор Сообщение

sergej644 ®

Пол:

Стаж: 4 года 11 месяцев

Сообщений: 6035

Откуда: Soviet Union



Награды: Нет

Торрент-статистика

Создавать темы 15-Ноя-2014 15:05

[Цитировать]

-Название: Граница
Оригинальное название: Frontière
Год выпуска: 2007
Страна: Франция, Швейцария
Жанр: ужасы, триллер
Продолжительность: 01:48:09
Перевод: Дубляж
Субтитры: русские (Полные)-Режиссер: Ксавье Жанс / Xavier Gens-В ролях: Карина Теста (Yasmine), Самюэль Ле Бьян (Goetz), Эстель Лефебюр (Gilberte), Орельен Вик (Alex), Дэвид Саракино (Tom), Чемс Дамани (Farid), Мод Форже (Eva), Амели Доре (Klaudia), Розин Фавей (La mere), Адель Беншериф (Sami), Жоэль Лефрансуа (Hans), Патрик Лигарде (Karl)-Описание:
Преступная банда после ряда дерзких ограблений скрывается от правосудия в близлежащих лесах. Скитаясь в поисках временно прибежища, они выходят к мотелю. Хозяева спасительного пристанища не отличаются гостеприимством. Но даже самые страшные фантазии не в состоянии сравниться с ожидающей несчастных реальностью. Совсем скоро неудавшиеся бандиты поймут, что стали пленниками каннибалов, которые уготовили своим постояльцам ужасную смерть...-Рейтинг

imdb.com: 6.30 (16 444)
MPAA: NC-17 - Лицам до 17 лет просмотр запрещен-Автор рипа:Tiberiumsun69-Качество: BDRip 720p / 60FPS
Формат: MKV
Видео кодек: AVC
Аудио кодек:AC3
✦ Видео: 1280x544, 5811 kbps, 59,940 fps
✦ Аудио 1 русский/ 5.1/ 48 kHz/ 640 kbps/ AC3/ |Дубляж|
✦ Аудио 2 французский/ 5.1/ 48 kHz/ 640 kbps/ AC3
Навигация по главам: есть
-

MI

General
Unique ID : 254469433769482229478844399243686755152 (0xBF7107BDFDD66AB28A6E90DC6466BB50)
Название : A:720p 60fpsГраница 720p 60fps.mkv
Формат : Matroska
Формат version : Version 4 / Version 2
Размер файла : 5.47 GiB
Длительность : 1h 48mn
Общий Битрейт : 7 235 Kbps
Encoded date : UTC 2014-08-17 03:11:50
Создано приложением : mkvmerge v6.9.1 ('Blue Panther') 64bit built on Apr 18 2014 18:23:38
Writing library : libebml v1.3.0 + libmatroska v1.4.1
Video
ID : 1
Формат : AVC
Формат/Info : Advanced Video Кодек
Формат profile : High@L4.1
Формат настройки, CABAC : Yes
Формат настройки, ReFrames : 9 frames
Кодек ID : V_MPEG4/ISO/AVC
Длительность : 1h 48mn
Битрейт : 5 811 Kbps
Width : 1 280 пикселей
Высота : 544 пикселей
Соотношение кадра : 2.35:1
Частота кадров : 59.940 fps
Цветопередача : YUV
Chroma subsampling : 4:2:0
Разрядность : 8 bits
Тип сканирования : Progressive
Bits/(Pixel*Frame) : 0.139
Размер потока : 4.39 GiB (80%)
Writing library : x264 core 130 r2273 b3065e6
Encoding настройки : cabac=1 / ref=9 / deblock=1:-1:-1 / analyse=0x3:0 / me=umh / subme=9 / psy=1 / psy_rd=1.00:0.10 / mixed_ref=1 / me_range=42 / chroma_me=0 / trellis=2 / 8x8dct=1 / cqm=0 / deadzone=21,11 / fast_pskip=0 / chroma_qp_offset=-3 / threads=12 / lookahead_threads=1 / sliced_threads=0 / nr=0 / decimate=0 / interlaced=0 / bluray_compat=0 / constrained_intra=0 / bframes=6 / b_pyramid=2 / b_adapt=2 / b_bias=0 / direct=1 / weightb=1 / open_gop=0 / weightp=2 / keyint=594 / keyint_min=59 / scenecut=40 / intra_refresh=0 / rc=crf / mbtree=0 / crf=15.0 / qcomp=0.60 / qpmin=0 / qpmax=69 / qpstep=4 / ip_ratio=1.40 / pb_ratio=1.30 / aq=0
Язык : English
Default : Yes
Forced : No
Audio #1
ID : 2
Формат : AC-3
Формат/Info : Audio Coding 3
Расширение режима : CM (complete main)
Кодек ID : A_AC3
Длительность : 1h 48mn
Битрейт mode : Constant
Битрейт : 640 Kbps
Каналы(s) : 6 каналов
Каналы positions : Front: L C R, Side: L R, LFE
Частота : 48.0 KHz
Разрядность : 16 bits
Режим сжатия : Lossy
Размер потока : 495 MiB (9%)
Title : Дубляж
Язык : Russian
Default : Yes
Forced : No
Audio #2
ID : 3
Формат : AC-3
Формат/Info : Audio Coding 3
Расширение режима : CM (complete main)
Кодек ID : A_AC3
Длительность : 1h 48mn
Битрейт mode : Constant
Битрейт : 640 Kbps
Каналы(s) : 6 каналов
Каналы positions : Front: L C R, Side: L R, LFE
Частота : 48.0 KHz
Разрядность : 16 bits
Режим сжатия : Lossy
Размер потока : 495 MiB (9%)
Title : Original
Язык : French
Default : No
Forced : No
Text
ID : 4
Формат : UTF-8
Кодек ID : S_TEXT/UTF8
Кодек ID/Info : UTF-8 Plain Text
Title : Полные
Язык : Russian
Default : No
Forced : No
Menu
00:00:00.000 : en:Chapter 1
00:04:16.005 : en:Chapter 2
00:11:46.455 : en:Chapter 3
00:17:03.522 : en:Chapter 4
00:24:01.940 : en:Chapter 5
00:33:31.009 : en:Chapter 6
00:41:18.476 : en:Chapter 7
00:46:37.836 : en:Chapter 8
00:53:35.253 : en:Chapter 9
00:58:31.591 : en:Chapter 10
01:05:40.269 : en:Chapter 11
01:10:28.724 : en:Chapter 12
01:16:28.083 : en:Chapter 13
01:24:30.482 : en:Chapter 14
01:34:45.096 : en:Chapter 15
01:42:03.826 : en:Chapter 16
01:48:09.107 : en:Chapter 17

Скриншоты

[Профиль] [ЛС]
Кто просматривает тему:

Форум Тема Автор Размер
Отечественные cериалы 1812-1815. Заграничный поход [01-04 из 04] (Павел Тупик, Андрей Верещагин) [2014, Документальный, драма, исторический, реконструкция] WEB-DLRip BOSS 2.85 GB
Документальные HD 1812-1815. Заграничный Поход. Серии 1-4 (из 4) (Павел Тупик, Андрей Верещагин) [2014, Документальный | Реконструкция, HDTV 720p] TorrentFilm 6.29 GB
BBC BBC: Horizon. Танцы на грани тьмы - это конец физики? / Horizon. Dancing in the Dark - The End of Physics? (Peter Leonard) [2015 г., Документальный, научно-познавательный, SATRip] skorpionN 696 MB
BBC BBC: Безграничная Римская империя с Мэри Бирд / Mary Beard Ultimate Rome Empire Without Limit [серии 1-4 из 4] (Chris Mitchell) [2015 г., Документальный, история, исследования, HDTVRip-AVC 720p] skorpionN 7.21 GB
Фантастика и фэнтези Андрей Белянин - Граничары 3: Клан Белого Волка (2016) MP3 Swager 265 MB
Фантастика и фэнтези Антология фантастики – Грани вселенной [сборник] (2015) MP3 Swager 2.42 GB
Фильмы (HD Rips | 720p, 1080p) Без границ (2015) WEB-DL 1080p | iTunes BOSS 3.23 GB
Фильмы (HD Rips | 720p, 1080p) Без границ (2015) WEB-DL 720p | iTunes BOSS 2.93 GB
Показать сообщения:    

Текущее время: Сегодня 22:36

Часовой пояс: GMT



Вы не можете начинать темы
Вы не можете отвечать на сообщения
Вы не можете редактировать свои сообщения
Вы не можете удалять свои сообщения
Вы не можете голосовать в опросах
Вы не можете прикреплять файлы к сообщениям
Вы не можете скачивать файлы