Гранд [01-21 из 21] (2018) WEB-DLRip

 
Author Message

Pensioner ®

Longevity: 3 years 7 months

Posts: 514

Location: Казахстан



: 5 ()

Mega Seeder 1 (1) Top Releaser 2 (1) Mega Seeder 3 (1)
Торрент-статистика

Post 27-Aug-2018 04:50

[Quote]

Информация о фильме
Название: Гранд
Год выпуска: 2018
Жанр: Комедия
Режиссер: Дмитрий Грибанов
В ролях: Александр Лыков, Мила Сивацкая, Константин Белошапка, Ольга Филимонова, Григорий Сиятвинда, Екатерина Вилкова, Елена Ксенофонтова, Милош Бикович, Сергей Лавыгин, Михаил Тарабукин, Ольга Кузьмина, Виктор Хориняк, Диана Пожарская
О фильме: Амбициозная и склонная к авантюрам студентка пятого курса Алтайского университета туризма и отдыха Ксения Завгородняя мечтает работать в гостиничном бизнесе и открыть собственный отель. Но навязчивое внимание ректора ставит под угрозу не только планы Ксюши, но и ее дальнейшее обучение в ВУЗе. Девушка находит смелый, но очень скандальный выход из ситуации, после которого ей приходится спасаться бегством из Барнаула. Ксюша отправляется в Москву в надежде устроиться портье в отель, где работает ее родственник.

Выпущено: Россия
Студия: YBW Group­ по заказу телеканала Супер
Продолжительность: 21 х ~ 00:28:00
Перевод: Не требуется
Файл
Качество: WEBRip
Видео: XviD, ~ 1500 Кбит/с, 720х400
Аудио: AC3, 2 ch, 192 Кбит/с
Доп. ин.-ция

Внимание! Раздача ведётся путём добавления новых серий

Раздача ведётся путём добавления новых серий, при каждом добавлении создаётся новый торрент. Чтобы начать докачку новой серии, пользователям необходимо сделать следующее:
- Остановить скачивание.
- Удалить старый торрент у себя из клиента (старые серии удалять не надо).
- Скачать новый торрент и запустить его у себя в клиенте вместо старого, при этом указать клиенту путь в старую папку куда и должно происходить скачивание новых серий.
Ваш клиент при этом должен произвести хеширование (проверку) старой папки (если не производит сам - помогите ему сделать это), и будет докачивать только те серии которых у вас ещё нет. Старые серии при этом не удаляются, а продолжают раздаваться!

MediaInfo:

Общее
Полное имя : D:\моё видио\Grand.2018.WEB-DLRip.Files-x\01.Grand.2018.WEB-DLRip.Files-x.avi
Формат : AVI
Формат/Информация : Audio Video Interleave
Размер файла : 345 Мбайт
Продолжительность : 28 м.
Общий поток : 1696 Кбит/сек
Программа кодирования : VirtualDubMod 1.5.10.3 | www.virtualdub-fr.org || (build 2550/release)
Библиотека кодирования : VirtualDubMod build 2550/release
Видео
Идентификатор : 0
Формат : MPEG-4 Visual
Профиль формата : Advanced Simple@L5
Параметр BVOP формата : 1
Параметр QPel формата : Нет
Параметр GMC формата : Без точки перехода
Параметр матрицы формата : Выборочная
Идентификатор кодека : XVID
Идентификатор кодека/Подсказка : XviD
Продолжительность : 28 м.
Битрейт : 1494 Кбит/сек
Ширина : 720 пикселей
Высота : 400 пикселей
Соотношение сторон : 16:9
Частота кадров : 23,976 кадра/сек
Цветовое пространство : YUV
Субдискретизация насыщенности : 4:2:0
Битовая глубина : 8 бит
Тип развёртки : Прогрессивная
Метод сжатия : С потерями
Бит/(Пиксели*Кадры) : 0.216
Размер потока : 304 Мбайт (88%)
Библиотека кодирования : XviD 73
Аудио
Идентификатор : 1
Формат : AC-3
Формат/Информация : Audio Coding 3
Расширение режима : CM (complete main)
Параметр Endianness формата : Big
Идентификатор кодека : 2000
Продолжительность : 28 м.
Вид битрейта : Постоянный
Битрейт : 192 Кбит/сек
Каналы : 2 канала
Расположение каналов : Front: L R
Частота : 48,0 КГц
Битовая глубина : 16 бит
Метод сжатия : С потерями
Размер потока : 39,1 Мбайт (11%)
Выравнивание : Разделение по промежуткам
Продолжительность промежутка : 42 мс. (1,00 видеокадр)
Время предзагрузки промежутка : 500 мс.

Скриншоты

Добавлены 1-21 серии.
1-21 серии. Сериал залит полностью.


Last edited by Pensioner on 2018-10-05 15:15; edited 4 times in total
[Profile] [PM]

Pensioner ®

Longevity: 3 years 7 months

Posts: 514

Location: Казахстан



: 5 ()

Top Releaser 2 (1) Mega Seeder 1 (1) Mega Seeder 2 (1)
Торрент-статистика

Post 05-Oct-2018 15:17 (after 1 month 9 days)

[Quote]

Добавлены 17-21 серии.
[Profile] [PM]
Кто просматривает тему:

Forum Topic Author Size
Da Vinci Learning Da Vinci Learning: Плазма: новая заря / Plasma. Ultimate Aurora (Энди Касагранд / Andy Casagrande, Томас Лукас / Thomas Lucas) [2013 г., Документальный, научно-популярный, физика и пространство,... skorpionN 716 MB
Viasat History Viasat History: Гинденбург: Титаник небес / Hindenburg: Titanic of the Skies (Шон Гранди / Sean Grundy) [2007 г., Документально- постановочный, драма, SATRip] skorpionN 1.24 GB
R.G.TorrentFilm Video В конце туннеля / Al final del túnel (Родриго Гранде / Rodrigo Grande) [2016, Аргентина, Испания, Триллер, криминал, HDRip] MVO (@MUZOBOZ@) Один 777 748 MB
Авто / Мото Гранд тур / The Grand Tour [01x01] (2016) WEBRip 720p | SUB ZeNArD 4.57 GB
Авто / Мото Гранд тур / The Grand Tour [01х01] (2016) WEBRip 1080p | ColdFilm ZeNArD 4.51 GB
Фильмы (HD DVD, Blu-ray и BDRemux) Дьявольский / The Diabolical (Алистер Легранд / Alistair Legrand) [2015, США, ужасы, фантастика, триллер, BDRemux 1080p] VO (Миллиган) + Sub Eng + Original Eng Russian Mafia 19.34 GB
Фильмы (DVD 5/9) Евгения Гранде (Сергей Алексеев) [1960, СССР, Мелодрама, экранизация, DVD5] TorrentFilm 3.19 GB
Фильмы (HD Rips | 720p, 1080p) Отель «Гранд Будапешт» / The Grand Budapest Hotel (2014) BDRemux 1080р от ExKinoRay | Лицензия sergej644 20.03 GB
Display posts from previous:    

The time now is: Today 18:03

All times are GMT



You cannot post new topics in this forum
You cannot reply to topics in this forum
You cannot edit your posts in this forum
You cannot delete your posts in this forum
You cannot vote in polls in this forum
You cannot attach files in this forum
You cannot download files in this forum