Гражданка Катерина (2015) SATRip (серии 1-4 из 4)

 
Автор Сообщение

достали все ®

Пол:

Стаж: 1 год 8 месяцев

Сообщений: 6613



Награды: 12 (Подробнее)

Mega Releaser 3 (Количество: 1) Mega Releaser 2 (Количество: 1) Top Releaser 2 (Количество: 1)
Торрент-статистика

Создавать темы 17-Май-2015 13:21

[Цитировать]

-Гражданка Катерина (2015) SATRip (серии 1-4 из 4)- Производство: Россия, Марс Медиа
Жанр: мелодрама
Режиссер: Наталья Углицких
Актеры: Валерия Ланская, Кирилл Гребенщиков, Яна Крайнова, Светлана Милованова, Валерий Новиков, Сергей Губанов, Анастасия Денисова, Рита Дьяченкова, Алеся Гузько, Егор Клинаев, Никита Тарасов, Дарья Андреева и др.
Описание:
Жительница Молдовы Катерина приезжает в Москву в надежде получить опеку над осиротевшей маленькой сестренкой. Чтобы ускорить оформление гражданства, Катерина решается на фиктивный брак. Однако узнав получше своего фиктивного мужа, Катерина влюбляется в него…

Дата российской премьеры: 17 мая 2015
Продолжительность: 4х~ 00:44:00 серия
Качество видео: SATRip
Видеокодек: DivX
Битрейт видео: ~1500 kbps
Размер кадра: 720x448 (16:10)
Аудиокодек: MP3 2.0
Битрейт аудио: 128 kbps

MediaInfo:

Общее
Полное имя : D:\Гражданка Катерина (2015) SATRip\01.Гражданка_Катерина.2015.SATRip.avi
Формат : AVI
Формат/Информация : Audio Video Interleave
Размер файла : 519 Мбайт
Продолжительность : 44 м.
Общий поток : 1642 Кбит/сек
Программа кодирования : transcode-1.1.5
Видео
Идентификатор : 0
Формат : MPEG-4 Visual
Параметр BVOP формата : Да
Параметр QPel формата : Нет
Параметр GMC формата : Без точки перехода
Параметр матрицы формата : Default (H.263)
Идентификатор кодека : DX50
Идентификатор кодека/Подсказка : DivX 5
Продолжительность : 44 м.
Битрейт : 1501 Кбит/сек
Ширина : 720 пикселей
Высота : 448 пикселей
Соотношение сторон : 16:10
Частота кадров : 25,000 кадров/сек
Цветовое пространство : YUV
Субдискретизация насыщенности : 4:2:0
Битовая глубина : 8 бит
Тип развёртки : Прогрессивная
Метод сжатия : С потерями
Бит/(Пиксели*Кадры) : 0.186
Размер потока : 475 Мбайт (91%)
Библиотека кодирования : Intel(R) MPEG-4 encoder based on Intel(R) IPP 6.1 build 137.20[6.1.137.763]
Аудио
Идентификатор : 1
Формат : MPEG Audio
Версия формата : Version 1
Профиль формата : Layer 3
Режим : Joint stereo
Расширение режима : MS Stereo
Идентификатор кодека : 55
Идентификатор кодека/Подсказка : MP3
Продолжительность : 44 м.
Вид битрейта : Постоянный
Битрейт : 128 Кбит/сек
Каналы : 2 канала
Частота : 48,0 КГц
Метод сжатия : С потерями
Размер потока : 40,5 Мбайт (8%)
Выравнивание : Соединение по промежуткам
Продолжительность промежутка : 24 мс. (0,60 видеокадр)
Время предзагрузки промежутка : 48 мс.
Библиотека кодирования : LAME3.98.2
Скриншоты:
[Профиль] [ЛС]
Кто просматривает тему:

Форум Тема Автор Размер
XXXI Летние Олимпийские игры. Рио-де-Жанейро 2016 (Бразилия) XXXI Летние Олимпийские Игры. Рио-де-Жанейро (Бразилия). Вольная борьба. Женщины до 48, 58, 69 кг. Предварительные поединки, 1/8, 1/4, 1/2 финала, поединки за 3-е место. Финалы. Награждение [17.08]... BOSS 8.58 GB
XXXI Летние Олимпийские игры. Рио-де-Жанейро 2016 (Бразилия) XXXI Летние Олимпийские Игры. Рио-де-Жанейро (Бразилия). Греко-римская борьба. До 59кг и до 75кг. Утешительные поединки, за 3-е место. Финалы. Награждения [14.08] (2016) IPTVRip-AVC ODESSA 4.55 GB
XXXI Летние Олимпийские игры. Рио-де-Жанейро 2016 (Бразилия) XXXI Летние Олимпийские Игры. Рио-де-Жанейро (Бразилия). Греко-римская борьба. Предварительные поединки, 1/8, 1/4, 1/2 финала, утешительные поединки, за 3-е место. Финалы. Награждение [15.08] (2016)... ODESSA 7.13 GB
XXXI Летние Олимпийские игры. Рио-де-Жанейро 2016 (Бразилия) XXXI Летние Олимпийские Игры. Рио-де-Жанейро (Бразилия). Синхронное плавание. Группы. Произвольная программа. Финал. + Награждения [19.08] (2016) IPTV 1080i достали все 4.98 GB
XXXI Летние Олимпийские игры. Рио-де-Жанейро 2016 (Бразилия) XXXI Летние Олимпийские Игры. Рио-де-Жанейро (Бразилия). Фехтование. Женщины. Сабля. Команды. 1/4 финала, 1/2 финала, финал + Награждение [13.08] (2016) IPTVRip Russian Mafia 4.21 GB
XXXI Летние Олимпийские игры. Рио-де-Жанейро 2016 (Бразилия) XXXI Летние Олимпийские Игры. Рио-де-Жанейро (Бразилия). Фехтование. Мужчины. Рапира. Команды. 1/4 финала, 1/2 финала, финал + Награждение [12.08] (2016) IPTVRip 720p, IPTVRip-AVC BOSS 4.16 GB
Кино СССР Вас ожидает гражданка Никанорова (Леонид Марягин) [1978, мелодрама, DVDRip-AVC] reversefile 1.45 GB
Отечественные cериалы Гражданин Никто [01-16 из 16] (2016) HDTV 1080i достали все 45.3 GB
Показать сообщения:    

Текущее время: Сегодня 18:49

Часовой пояс: GMT



Вы не можете начинать темы
Вы не можете отвечать на сообщения
Вы не можете редактировать свои сообщения
Вы не можете удалять свои сообщения
Вы не можете голосовать в опросах
Вы не можете прикреплять файлы к сообщениям
Вы не можете скачивать файлы