Гражданин четыре / Citizenfour (Лора Пойтрас / Laura Poitras) [2014, Документальный, HDTVRip 1080p]

 
Автор Сообщение

TorrentFilm ®

Пол:

Стаж: 2 года

Сообщений: 7741



Награды: Нет

Торрент-статистика

Создавать темы 13-Июл-2015 00:06

[Цитировать]

Гражданин четыре / Citizenfour
Год выпуска: 2014
Страна: Германия, США
Студия: Praxis Films
Жанр: Документальный
Продолжительность: 01:53:37
Перевод: Любительский (многоголосый закадровый)
Русские субтитры: нет
Режиссер: Лора Пойтрас / Laura Poitras
Описание: В январе 2013 года Лора Пойтрас стала получать анонимные зашифрованные электронные письма от человека по имени «CITIZENFOUR», который утверждал, что у него есть доказательства существования нелегальных программ скрытого наблюдения, которое ведет АНБ в сотрудничестве с другими спецслужбами по всему миру.
Пять месяцев спустя она и журналисты Гленн Гринвальд и Ивен МакАскилл прилетели в Гонконг для первой из многих встреч с этим человеком. Им оказался Эдвард Сноуден.
Фильм-победитель в номинации лучший документальный фильм Оскар-2015, Британской академии - 2015
Тип релиза: HDTVRip 1080p
Контейнер: MKV
Видео: AVC x264, 1920х1072 (16:9), 23.976 fps, 5 440 Kbps
Аудио: 48.000 Hz, AC-3, 2 ch, 128 Kbps
Аудио 2: 48.000 Hz, AC-3, 2 ch, 128 Kbps

MediaInfo

General Complete name: ... \Citizenfour.2014. 1080p.HDTV.mkv Format : Matroska Format version : Version 2 File size : 4.51 GiB Duration : 1h 53mn Overall bit rate : 5 681 Kbps Encoded date : UTC 2015-04-12 13:06:05 Writing application : mkvmerge v3.3.0 ('Language') сборка от May 14 2010 17:11:50 Writing library : libebml v0.8.0 + libmatroska v0.9.0 Video #1 ID : 1 Format : AVC Format/Info : Advanced Video Codec Format profile : High@L4.1 Format settings, CABAC : Yes Format settings, ReFrames : 4 frames Codec ID : V_MPEG4/ISO/AVC Duration : 1h 53mn Bit rate : 5 440 Kbps Width : 1 920 pixels Height : 1 072 pixels Display aspect ratio : 16:9 Frame rate : 23.976 fps Color space : YUV Chroma subsampling : 4:2:0 Bit depth : 8 bits Scan type : Progressive Bits/(Pixel*Frame) : 0.110 Stream size : 4.32 GiB (96%) Writing library : x264 core 144 r2525 40bb568 Encoding settings : cabac=1 / ref=4 / deblock=1:-3:-3 / analyse=0x3:0x113 / me=umh / subme=8 / psy=1 / psy_rd=1.00:0.00 / mixed_ref=1 / me_range=16 / chroma_me=1 / trellis=1 / 8x8dct=1 / cqm=0 / deadzone=21,11 / fast_pskip=0 / chroma_qp_offset=-2 / threads=18 / lookahead_threads=3 / sliced_threads=0 / nr=0 / decimate=1 / interlaced=0 / bluray_compat=0 / constrained_intra=0 / bframes=3 / b_pyramid=2 / b_adapt=2 / b_bias=0 / direct=3 / weightb=1 / open_gop=0 / weightp=2 / keyint=250 / keyint_min=23 / scenecut=40 / intra_refresh=0 / rc_lookahead=50 / rc=crf / mbtree=1 / crf=19.0 / qcomp=0.60 / qpmin=0 / qpmax=69 / qpstep=4 / ip_ratio=1.40 / aq=1:1.00 Language : English Default : No Forced : No Matrix coefficients : BT.709-5, BT.1361, IEC 61966-2-4 709, SMPTE RP177 Audio #2 ID : 2 Format : AC-3 Format/Info : Audio Coding 3 Mode extension : CM (complete main) Codec ID : A_AC3 Duration : 1h 53mn Bit rate mode : Constant Bit rate : 128 Kbps Channel(s) : 2 channels Channel positions : Front: L R Sampling rate : 48.0 KHz Bit depth : 16 bits Compression mode : Lossy Stream size : 104 MiB (2%) Default : Yes Forced : No

Скриншоты






[Профиль] [ЛС]
Кто просматривает тему:

Форум Тема Автор Размер
XXXI Летние Олимпийские игры. Рио-де-Жанейро 2016 (Бразилия) XXXI Летние Олимпийские Игры. Рио-де-Жанейро (Бразилия). Вольная борьба. Женщины до 48, 58, 69 кг. Предварительные поединки, 1/8, 1/4, 1/2 финала, поединки за 3-е место. Финалы. Награждение [17.08]... BOSS 8.58 GB
XXXI Летние Олимпийские игры. Рио-де-Жанейро 2016 (Бразилия) XXXI Летние Олимпийские Игры. Рио-де-Жанейро (Бразилия). Греко-римская борьба. До 59кг и до 75кг. Утешительные поединки, за 3-е место. Финалы. Награждения [14.08] (2016) IPTVRip-AVC ODESSA 4.55 GB
XXXI Летние Олимпийские игры. Рио-де-Жанейро 2016 (Бразилия) XXXI Летние Олимпийские Игры. Рио-де-Жанейро (Бразилия). Греко-римская борьба. Предварительные поединки, 1/8, 1/4, 1/2 финала, утешительные поединки, за 3-е место. Финалы. Награждение [15.08] (2016)... ODESSA 7.13 GB
XXXI Летние Олимпийские игры. Рио-де-Жанейро 2016 (Бразилия) XXXI Летние Олимпийские Игры. Рио-де-Жанейро (Бразилия). Синхронное плавание. Группы. Произвольная программа. Финал. + Награждения [19.08] (2016) IPTV 1080i достали все 4.98 GB
XXXI Летние Олимпийские игры. Рио-де-Жанейро 2016 (Бразилия) XXXI Летние Олимпийские Игры. Рио-де-Жанейро (Бразилия). Фехтование. Женщины. Сабля. Команды. 1/4 финала, 1/2 финала, финал + Награждение [13.08] (2016) IPTVRip Russian Mafia 4.21 GB
XXXI Летние Олимпийские игры. Рио-де-Жанейро 2016 (Бразилия) XXXI Летние Олимпийские Игры. Рио-де-Жанейро (Бразилия). Фехтование. Мужчины. Рапира. Команды. 1/4 финала, 1/2 финала, финал + Награждение [12.08] (2016) IPTVRip 720p, IPTVRip-AVC BOSS 4.16 GB
Кино СССР Вас ожидает гражданка Никанорова (Леонид Марягин) [1978, мелодрама, DVDRip-AVC] reversefile 1.45 GB
Отечественные cериалы Гражданин Никто [01-16 из 16] (2016) HDTV 1080i достали все 45.3 GB
Показать сообщения:    

Текущее время: Сегодня 13:02

Часовой пояс: GMT



Вы не можете начинать темы
Вы не можете отвечать на сообщения
Вы не можете редактировать свои сообщения
Вы не можете удалять свои сообщения
Вы не можете голосовать в опросах
Вы не можете прикреплять файлы к сообщениям
Вы не можете скачивать файлы