Гостья / The Host (2013) BDRip 720p | D | GER Transfer

 
Автор Сообщение

Russian Mafia ®

Пол:

Стаж: 1 год 8 месяцев

Сообщений: 4257



Награды: 10 (Подробнее)

Mega Seeder 3 (Количество: 1) Top Releaser 5 (Количество: 1) Mega Seeder 1 (Количество: 1)
Торрент-статистика

Создавать темы 29-Май-2016 09:01

[Цитировать]

ГостьяThe Host«Самый странный из миров»- Страна: США, Швейцария
Жанр: фантастика, драма, мелодрама
Год выпуска: 2013
Продолжительность: 02:05:18
Перевод: Профессиональный (полное дублирование), Оригинальный
Субтитры: русские, английские, английские (SDH).-Режиссер: Эндрю Никкол / Andrew Niccol-В ролях: Сирша Ронан (Melanie Stryder / Wanda), Макс Айронс (Jared Howe), Джейк Эйбел (Ian O'Shea), Дайан Крюгер (The Seeker / Lacey), Уильям Хёрт (Jeb), Чандлер Кентербери (Jamie), Фрэнсис Фишер (Maggie), Скотт Лоуренс (Doc), Бойд Холбрук (Kyle), Мустафа Харрис (Brandt), Эмили Браунинг (Wanda / Petals Open to the Moon, в титрах не указана), Рэйчел Робертс (Soul Fleur)
Дублёры: Анастасия Жаркова (Melanie Stryder / Wanda), Сергей Смирнов (Jared Howe), Михаил Тихонов (Ian O'Shea), Полина Щербакова (The Seeker / Lacey), Владимир Антоник (Jeb), Даниил Трещов (Jamie), Ирина Пономарева (Maggie), Владислав Копп (Doc), Илья Исаев (Seeker Reed), Андрей Казанцев (Healer Fords), Алексей Борзунов, Валентина Абрамова-Описание: Земля - в опасности! Наше место скоро займут Души - лишенные плотской оболочки пришельцы, вытесняющие из человеческих тел разум и замещающие его разумом собственным. Большая часть человечества уже погибла. Немногие выжившие скрываются в жалкой попытке отсрочить неизбежное... Теперь Душа пытается захватить тело юной Мелани. Однако происходит неожиданное: Мелани и ее Душа вынуждены сосуществовать в одном теле. Гостье надлежало выследить и выдать землян-повстанцев, с которыми связана Мелани, но она помогает своей носительнице.-
MPAA: PG-13 - Детям до 13 лет просмотр не желателен-Семпл-Качество: BDRip
Контейнер: MKV
Видео: AVC, 1280x534 (2.40:1), 3000 kbps, 23,976 fps, 0,183 bpp
Аудио №1: русский / AC3 / 5.1 / 48 kHz / 448 kbps
Аудио №2: английский / AC3 / 5.1 / 48 kHz / 640 kbps
Навигация по главам: есть-

Media Info

Format : Matroska
Format version : Version 2
File size : 3.58 GiB
Duration : 2h 5mn
Overall bit rate : 4 090 Kbps
Movie name : = Гостья / The Host (2013) BDRip 720p by SC Kosmos =
Encoded date : UTC 2016-05-25 14:53:57
Writing application : mkvmerge v5.8.0 ('No Sleep / Pillow') built on Sep 2 2012 15:37:04
Writing library : libebml v1.2.3 + libmatroska v1.3.0
Attachment : Yes
Video
ID : 1
Format : AVC
Format/Info : Advanced Video Codec
Format profile : High@L4.1
Format settings, CABAC : Yes
Format settings, ReFrames : 8 frames
Codec ID : V_MPEG4/ISO/AVC
Duration : 2h 5mn
Bit rate : 3 000 Kbps
Width : 1 280 pixels
Height : 534 pixels
Display aspect ratio : 2.40:1
Frame rate : 23.976 fps
Color space : YUV
Chroma subsampling : 4:2:0
Bit depth : 8 bits
Scan type : Progressive
Bits/(Pixel*Frame) : 0.183
Stream size : 2.56 GiB (71%)
Title : Гостья / The Host (2013) BDRip 720p by SC Kosmos
Writing library : x264 core 146 r2538 121396c
Encoding settings : cabac=1 / ref=8 / deblock=1:-3:-3 / analyse=0x3:0x113 / me=umh / subme=11 / psy=1 / psy_rd=1.00:0.00 / mixed_ref=1 / me_range=32 / chroma_me=1 / trellis=2 / 8x8dct=1 / cqm=0 / deadzone=21,11 / fast_pskip=0 / chroma_qp_offset=-2 / threads=12 / lookahead_threads=3 / sliced_threads=0 / nr=0 / decimate=0 / interlaced=0 / bluray_compat=0 / constrained_intra=0 / bframes=10 / b_pyramid=2 / b_adapt=2 / b_bias=0 / direct=3 / weightb=1 / open_gop=0 / weightp=2 / keyint=240 / keyint_min=23 / scenecut=40 / intra_refresh=0 / rc=2pass / mbtree=0 / bitrate=3000 / ratetol=1.0 / qcomp=0.60 / qpmin=0 / qpmax=69 / qpstep=4 / cplxblur=20.0 / qblur=0.5 / ip_ratio=1.40 / pb_ratio=1.30 / aq=1:1.00 / zones=168772,180264,b=0.25
Language : English
Default : Yes
Forced : No
Audio #1
ID : 2
Format : AC-3
Format/Info : Audio Coding 3
Mode extension : CM (complete main)
Codec ID : A_AC3
Duration : 2h 5mn
Bit rate mode : Constant
Bit rate : 448 Kbps
Channel(s) : 6 channels
Channel positions : Front: L C R, Side: L R, LFE
Sampling rate : 48.0 KHz
Bit depth : 16 bits
Compression mode : Lossy
Stream size : 402 MiB (11%)
Title : Дубляж
Language : Russian
Default : Yes
Forced : No
Audio #2
ID : 3
Format : AC-3
Format/Info : Audio Coding 3
Mode extension : CM (complete main)
Codec ID : A_AC3
Duration : 2h 5mn
Bit rate mode : Constant
Bit rate : 640 Kbps
Channel(s) : 6 channels
Channel positions : Front: L C R, Side: L R, LFE
Sampling rate : 48.0 KHz
Bit depth : 16 bits
Compression mode : Lossy
Stream size : 574 MiB (16%)
Language : English
Default : No
Forced : No
Text #1
ID : 4
Format : UTF-8
Codec ID : S_TEXT/UTF8
Codec ID/Info : UTF-8 Plain Text
Language : Russian
Default : No
Forced : No
Text #2
ID : 5
Format : UTF-8
Codec ID : S_TEXT/UTF8
Codec ID/Info : UTF-8 Plain Text
Language : English
Default : No
Forced : No
Text #3
ID : 6
Format : UTF-8
Codec ID : S_TEXT/UTF8
Codec ID/Info : UTF-8 Plain Text
Title : SDH
Language : English
Default : No
Forced : No
Menu
00:00:00.000 : en:00:00:00.000
00:09:25.774 : en:00:09:25.774
00:20:15.005 : en:00:20:15.005
00:30:46.470 : en:00:30:46.470
00:42:11.738 : en:00:42:11.738
00:54:13.125 : en:00:54:13.125
01:03:35.186 : en:01:03:35.186
01:13:36.996 : en:01:13:36.996
01:24:13.090 : en:01:24:13.090
01:33:48.540 : en:01:33:48.540
01:44:30.973 : en:01:44:30.973
01:55:07.109 : en:01:55:07.109
-

Скриншоты


[Профиль] [ЛС]
Показать сообщения:    

Текущее время: Сегодня 05:19

Часовой пояс: GMT



Вы не можете начинать темы
Вы не можете отвечать на сообщения
Вы не можете редактировать свои сообщения
Вы не можете удалять свои сообщения
Вы не можете голосовать в опросах
Вы не можете прикреплять файлы к сообщениям
Вы не можете скачивать файлы