Госпожа Метелица / Frau Holle (Бодо Фюрнайзен / Bodo Furnaisen) [2008, Германия, детский, семейный, сказка, HDTVRip] MVO (ТВЦ) + Original Ger

 
Автор Сообщение

TorrentFilm ®

Пол:

Стаж: 2 года

Сообщений: 7741



Награды: Нет

Торрент-статистика

Создавать темы 13-Янв-2016 00:08

[Цитировать]

Госпожа Метелица / Frau Holle
Страна: Германия
Жанр: детский, семейный, сказка
Год выпуска: 2008
Продолжительность: 00:58:22
Перевод: Профессиональный (многоголосый закадровый) компания "Игмар"
Cубтитры: нет
Оригинальная аудиодорожка: немецкий
Режиссер: Бодо Фюрнайзен / Bodo Furnaisen
В ролях: Марианне Зэгебрехт, Херберт Фойерштайн, Йоханна Гастдорф, Питер Прагер, Франциска Тренье, Патрик Драйкаусс
Описание: История про двух сестёр, попавших во владения госпожи Метелицы. По-разному они госпоже служили — и награды за свою работу получили разные. Однажды девушка по наказу злой мачехи долго пряла у колодца, поранила палец до крови, опустила руку в воду, чтобы обмыть, и обронила веретено. Мачеха рассердилась и велела ей достать веретено из колодца. Отчаявшись, девушка прыгнула в воду и оказалась в волшебном месте, где печь, яблоня и ворон умеют разговаривать. Она стала работать по хозяйству у самой госпожи Метелицы. Когда девушка трясла перину госпожи так усердно, что летели перья, — в мире шел снег…...
Доп. информация: Рип с канала 1HD. Из видеоряда удален логотип канала и прочие посторонние элементы.
Сэмпл: http://multi-up.com/1083406
Качество видео: HDTVRip
Формат видео: AVI
Видео: MPEG4, XviD, 720x400 (16:9), 25.000 fps, 2 057 Kbps (0.286 bit/pixel)
Аудио: AC-3, 48.0 KHz, 2 ch, 192 Kbps, CBR - русский
Аудио 2: AC-3, 48.0 KHz, 2 ch, 224 Kbps, CBR - немецкий

MediaInfo

бщее
Полное имя : N:\Госпожа Метелица.avi
Формат : AVI
Формат/Информация : Audio Video Interleave
Размер файла : 1,01 Гбайт
Продолжительность : 58 м.
Общий поток : 2488 Кбит/сек
Название фильма : Госпожа Метелица / Frau Holle (2008)
Программа кодирования : VirtualDubMod 1.5.10.2 (build 2540/release)
Библиотека кодирования : VirtualDubMod build 2540/release
Авторское право : miha2154
Видео
Идентификатор : 0
Формат : MPEG-4 Visual
Профиль формата : Advanced Simple@L5
Параметр BVOP формата : 1
Параметр QPel формата : Нет
Параметр GMC формата : Без точки перехода
Параметр матрицы формата : Выборочная
Идентификатор кодека : XVID
Идентификатор кодека/Подсказка : XviD
Продолжительность : 58 м.
Битрейт : 2057 Кбит/сек
Ширина : 720 пикселей
Высота : 400 пикселей
Соотношение сторон : 16:9
Частота кадров : 25,000 кадров/сек
Цветовое пространство : YUV
Субдискретизация насыщенности : 4:2:0
Битовая глубина : 8 бит
Тип развёртки : Прогрессивная
Метод сжатия : С потерями
Бит/(Пиксели*Кадры) : 0.286
Размер потока : 859 Мбайт (83%)
Библиотека кодирования : XviD 65
Аудио #1
Идентификатор : 1
Формат : AC-3
Формат/Информация : Audio Coding 3
Расширение режима : CM (complete main)
Параметр Endianness формата : Big
Идентификатор кодека : 2000
Продолжительность : 58 м.
Вид битрейта : Постоянный
Битрейт : 192 Кбит/сек
Каналы : 2 канала
Расположение каналов : Front: L R
Частота : 48,0 КГц
Частота кадров : 31,250 кадров/сек (1536 spf)
Метод сжатия : С потерями
Размер потока : 80,2 Мбайт (8%)
Выравнивание : Разделение по промежуткам
Продолжительность промежутка : 40 мс. (1,00 видеокадр)
Время предзагрузки промежутка : 500 мс.
Заголовок : Профессиональный (многоголосый закадровый) ТВЦ
Аудио #2
Идентификатор : 2
Формат : AC-3
Формат/Информация : Audio Coding 3
Расширение режима : CM (complete main)
Параметр Endianness формата : Big
Идентификатор кодека : 2000
Продолжительность : 58 м.
Вид битрейта : Постоянный
Битрейт : 224 Кбит/сек
Каналы : 2 канала
Расположение каналов : Front: L R
Частота : 48,0 КГц
Частота кадров : 31,250 кадров/сек (1536 spf)
Метод сжатия : С потерями
Размер потока : 93,5 Мбайт (9%)
Выравнивание : Разделение по промежуткам
Продолжительность промежутка : 40 мс. (1,00 видеокадр)
Время предзагрузки промежутка : 500 мс.
Заголовок : Немецкий

Скриншоты


[Профиль] [ЛС]

Создавать темы 12-Июн-2016 08:50 (спустя 4 месяца 30 дней)

Топик был перенесен из форума Фильмы 2011 года в форум Фильмы 2006-2008 года
Russian Mafia
 
Кто просматривает тему:

Форум Тема Автор Размер
Фильмы 2009 года Господа Бронко / Gentlemen Broncos (Джаред Хесс / Jared Hess) [2009, США, комедия, HDRip] MVO (Первый канал) TorrentFilm 1.48 GB
Отечественные cериалы Господа-товарищи [01-02 из 08] (2014) SATRip от Files-x Белочка 1.08 GB
Отечественные cериалы Господа-товарищи [01-04 из 08] (2014) SATRip от Files-x Белочка 2.15 GB
Отечественные cериалы Господа-товарищи [01-16 из 16] (2014-2015) WEB-DL 720p от MediaClub sergej644 18.83 GB
Зарубежные мультфильмы Господин Иллюминатор / Mr Hublot (2013) WEB-DLRip достали все 155 MB
Фильмы 2011 года Господин полковник / Мой полковник / Mon colonel / The Colonel (Лоран Эрбье / Laurent Herbiet) [2006, Франция, Бельгия, военная драма, детектив, DVDRip] MVO painkiller 745 MB
Фильмы 2011 года Господин полковник / Мой полковник / Mon colonel / The Colonel (Лоран Эрбье / Laurent Herbiet) [2006, Франция, Бельгия, военная драма, детектив, DVDRip] MVO + Original + Sub Rus painkiller 2.18 GB
Фильмы (HD Rips | 720p, 1080p) Госпожа Америка / Mistress America (2015) BDRip 1080p | iTunes достали все 6.78 GB
Показать сообщения:    

Текущее время: Сегодня 22:42

Часовой пояс: GMT



Вы не можете начинать темы
Вы не можете отвечать на сообщения
Вы не можете редактировать свои сообщения
Вы не можете удалять свои сообщения
Вы не можете голосовать в опросах
Вы не можете прикреплять файлы к сообщениям
Вы не можете скачивать файлы