Госпожа Метелица / Frau Holle (Бодо Фюрнайзен / Bodo Furnaisen) [2008, Германия, детский, семейный, фэнтези, DVB-AVC] MVO

 
Автор Сообщение

TorrentFilm ®

Пол:

Стаж: 2 года

Сообщений: 7741



Награды: Нет

Торрент-статистика

Создавать темы 10-Янв-2016 00:09

[Цитировать]

Госпожа Метелица / Frau Holle
Год выпуска: 2008
Страна: Германия, Rundfunk Berlin-Brandenburg
Жанр: детский, семейный, фэнтези
Продолжительность: 00:58:23
Перевод: профессиональный (многоголосый закадровый) по заказу ЗАО «Первый канал. Всемирная сеть»
Русские субтитры: нет
Режиссёр: Бодо Фюрнайзен / Bodo Furnaisen
В ролях: Марианне Зэгебрехт, Херберт Фойерштайн, Йоханна Гастдорф, Питер Прагер, Франциска Тренье, Патрик Драйкаусс
Описание: история про двух сестёр, попавших во владения госпожи Метелицы. По-разному они госпоже служили — и награды за свою работу получили разные. Однажды девушка по наказу злой мачехи долго пряла у колодца, поранила палец до крови, опустила руку в воду, чтобы обмыть, и обронила веретено. Мачеха рассердилась и велела ей достать веретено из колодца. Отчаявшись, девушка прыгнула в воду и оказалась в волшебном месте, где печь, яблоня и ворон умеют разговаривать. Она стала работать по хозяйству у самой госпожи Метелицы. Когда девушка трясла перину госпожи так усердно, что летели перья, — в мире шел снег…...
Доп. информация: по мотивам сказки братьев Гримм

Трансляция спутникового канала: ТВЦ
Семпл: https://yadi.sk/i/1an86j8Bmjift
Качество видео: DVB
Формат видео: MPEG-TS
Видео: MPEG4 Video (H264), 720x576@1047x576 (16:9), анаморф, 25 fps, 3000 kbps
Аудио: MPEG Audio, 2 сh, 48 kHz, 192 kbps

MediaInfo

General
ID : 1 (0x1)
Complete name : G:\Госпожа Метелица. (2008)_DVB by SLuMeP.ts
Format : MPEG-TS
File size : 1.38 GiB
Duration : 58mn 23s
Overall bit rate mode : Variable
Overall bit rate : 3 373 Kbps
Video
ID : 203 (0xCB)
Menu ID : 1803 (0x70B)
Format : AVC
Format/Info : Advanced Video Codec
Format profile : High@L3
Format settings, CABAC : Yes
Format settings, ReFrames : 4 frames
Format settings, GOP : M=4, N=28
Codec ID : 27
Duration : 58mn 22s
Bit rate : 3 013 Kbps
Width : 720 pixels
Height : 576 pixels
Display aspect ratio : 16:9
Frame rate : 25.000 fps
Standard : PAL
Color space : YUV
Chroma subsampling : 4:2:0
Bit depth : 8 bits
Scan type : Interlaced
Scan type, store method : Separated fields
Scan order : Top Field First
Bits/(Pixel*Frame) : 0.291
Stream size : 1.23 GiB (89%)
Color range : Limited
Color primaries : BT.601 PAL
Transfer characteristics : BT.470 System B, BT.470 System G
Matrix coefficients : BT.601
Audio
ID : 68 (0x44)
Menu ID : 1803 (0x70B)
Format : MPEG Audio
Format version : Version 1
Format profile : Layer 2
Codec ID : 3
Duration : 58mn 22s
Bit rate mode : Constant
Bit rate : 192 Kbps
Channel(s) : 2 channels
Sampling rate : 48.0 KHz
Compression mode : Lossy
Delay relative to video : -120ms
Stream size : 80.2 MiB (6%)
Language : English

Скриншоты


[Профиль] [ЛС]

Создавать темы 12-Июн-2016 08:50 (спустя 5 месяцев 2 дня)

Топик был перенесен из форума Фильмы 2011 года в форум Фильмы 2006-2008 года
Russian Mafia
 
Кто просматривает тему:

Форум Тема Автор Размер
Фильмы 2009 года Господа Бронко / Gentlemen Broncos (Джаред Хесс / Jared Hess) [2009, США, комедия, HDRip] MVO (Первый канал) TorrentFilm 1.48 GB
Отечественные cериалы Господа-товарищи [01-02 из 08] (2014) SATRip от Files-x Белочка 1.08 GB
Отечественные cериалы Господа-товарищи [01-04 из 08] (2014) SATRip от Files-x Белочка 2.15 GB
Отечественные cериалы Господа-товарищи [01-16 из 16] (2014-2015) WEB-DL 720p от MediaClub sergej644 18.83 GB
Зарубежные мультфильмы Господин Иллюминатор / Mr Hublot (2013) WEB-DLRip достали все 155 MB
Фильмы 2011 года Господин полковник / Мой полковник / Mon colonel / The Colonel (Лоран Эрбье / Laurent Herbiet) [2006, Франция, Бельгия, военная драма, детектив, DVDRip] MVO painkiller 745 MB
Фильмы 2011 года Господин полковник / Мой полковник / Mon colonel / The Colonel (Лоран Эрбье / Laurent Herbiet) [2006, Франция, Бельгия, военная драма, детектив, DVDRip] MVO + Original + Sub Rus painkiller 2.18 GB
Фильмы (HD Rips | 720p, 1080p) Госпожа Америка / Mistress America (2015) BDRip 1080p | iTunes достали все 6.78 GB
Показать сообщения:    

Текущее время: Сегодня 21:00

Часовой пояс: GMT



Вы не можете начинать темы
Вы не можете отвечать на сообщения
Вы не можете редактировать свои сообщения
Вы не можете удалять свои сообщения
Вы не можете голосовать в опросах
Вы не можете прикреплять файлы к сообщениям
Вы не можете скачивать файлы