Господа Бронко / Gentlemen Broncos (Джаред Хесс / Jared Hess) [2009, США, комедия, HDRip] MVO (Первый канал)

 
Автор Сообщение

TorrentFilm ®

Пол:

Стаж: 2 года

Сообщений: 7741



Награды: Нет

Торрент-статистика

Создавать темы 04-Фев-2015 00:00

[Цитировать]

Господа Бронко
Gentlemen Broncos

Страна: США
Жанр: комедия
Год выпуска: 2009
Продолжительность: 01:29:20-Перевод: Профессиональный (многоголосый закадровый)
Первый канал

Cубтитры: нет
Оригинальная аудиодорожка: нет-Режиссер: Джаред Хесс / Jared Hess
В ролях: Майкл Ангарано, Сэм Рокуэлл, Дженнифер Кулидж, Джемейн Клемент, Майк Уайт, Хэлли Фейффер, Эктор Хименес, Сюзанн Мэй, Джош Пэйс-Описание: Юный Бенджи Пёрвис мечтает стать известным писателем-фантастом. Но это лишь дела грядущих дней, а пока подростку приходится выживать в приевшемся мирке повседневной обыденности, помогая матери-одиночке сводить концы с концами и лишь иногда окунаться в вымышленный мир отважного героя Бронко и его соратников. Однако, мечты Бенджи могут разбить ушлый писатель, вознамерившийся присвоить его роман себе, и бездарный режиссёр-любитель, взявшийся за экранизацию…-Доп. информация:
О переводе: Перевод на трекере появляется впервые
Качество: цифровой эфир (Первый канал)
Исходник и синхронизация: mister55555-Сэмпл: минута55сек-Качество видео: HDRip (спасибо ТыНьО)
Формат видео: AVI
Видео: XviD, 720x384, 1,85:1, 23,976 кадра/сек, 2163 Кбит/сек
Аудио: AC-3, 48,0 КГц, 192 Кбит/сек, 2 канала (многоголосый Первый канал)

MediaInfo

Общее
Полное имя : D:\с диска Е\инет\Раздачи\Господа Бронко.2009.HDRip.1канал\Господа Бронко.2009.HDRip.1канал.avi
Формат : AVI
Формат/Информация : Audio Video Interleave
Размер файла : 1,48 Гбайт
Продолжительность : 1 ч. 29 м.
Общий поток : 2365 Кбит/сек
Дата записи : 03.01.2015
Программа кодирования : VirtualDubModRus 1.5.10.2 (build 2542/release)
Библиотека кодирования : VirtualDubMod build 2542/release
Правообладатель : mister55555
Примечание : для torrentfilm.net
Видео
Идентификатор : 0
Формат : MPEG-4 Visual
Профиль формата : Advanced Simple@L5
Параметр BVOP формата : 1
Параметр QPel формата : Нет
Параметр GMC формата : Без точки перехода
Параметр матрицы формата : Выборочная
Идентификатор кодека : XVID
Идентификатор кодека/Подсказка : XviD
Продолжительность : 1 ч. 29 м.
Битрейт : 2163 Кбит/сек
Ширина : 720 пикселей
Высота : 384 пикселя
Соотношение сторон : 1,85:1
Частота кадров : 23,976 кадра/сек
Цветовое пространство : YUV
Субдискретизация насыщенности : 4:2:0
Битовая глубина : 8 бит
Тип развёртки : Прогрессивная
Метод сжатия : С потерями
Бит/(Пиксели*Кадры) : 0.326
Размер потока : 1,35 Гбайт (91%)
Библиотека кодирования : XviD 73
Аудио
Идентификатор : 1
Формат : AC-3
Формат/Информация : Audio Coding 3
Расширение режима : CM (complete main)
Параметр Endianness формата : Big
Идентификатор кодека : 2000
Продолжительность : 1 ч. 29 м.
Вид битрейта : Постоянный
Битрейт : 192 Кбит/сек
Каналы : 2 канала
Расположение каналов : Front: L R
Частота : 48,0 КГц
Битовая глубина : 16 бит
Метод сжатия : С потерями
Размер потока : 123 Мбайт (8%)
Выравнивание : Разделение по промежуткам
Продолжительность промежутка : 42 мс. (1,00 видеокадр)
Время предзагрузки промежутка : 500 мс.
Заголовок : многоголосый 1 канал

Скриншот c названием фильма

Скриншоты

[Профиль] [ЛС]

Создавать темы 06-Авг-2015 22:47 (спустя 6 месяцев 2 дня)

Топик был перенесен из форума Фильмы до 2014 года в форум Фильмы до 2012 года
sergej644
 

Создавать темы 12-Июн-2016 08:48 (спустя 1 год 4 месяца)

Топик был перенесен из форума Фильмы 2011 года в форум Фильмы 2009 года
Russian Mafia
 
Кто просматривает тему:

Форум Тема Автор Размер
Отечественные cериалы Господа-товарищи [01-02 из 08] (2014) SATRip от Files-x Белочка 1.08 GB
Отечественные cериалы Господа-товарищи [01-04 из 08] (2014) SATRip от Files-x Белочка 2.15 GB
Отечественные cериалы Господа-товарищи [01-16 из 16] (2014-2015) WEB-DL 720p от MediaClub sergej644 18.83 GB
Зарубежные мультфильмы Господин Иллюминатор / Mr Hublot (2013) WEB-DLRip достали все 155 MB
Фильмы 2011 года Господин полковник / Мой полковник / Mon colonel / The Colonel (Лоран Эрбье / Laurent Herbiet) [2006, Франция, Бельгия, военная драма, детектив, DVDRip] MVO painkiller 745 MB
Фильмы 2011 года Господин полковник / Мой полковник / Mon colonel / The Colonel (Лоран Эрбье / Laurent Herbiet) [2006, Франция, Бельгия, военная драма, детектив, DVDRip] MVO + Original + Sub Rus painkiller 2.18 GB
Фильмы (HD Rips | 720p, 1080p) Госпожа Америка / Mistress America (2015) BDRip 1080p | iTunes достали все 6.78 GB
Фильмы (HD Rips | 720p, 1080p) Госпожа Америка / Mistress America (2015) BDRip 1080p | L2 BOSS 6.78 GB
Показать сообщения:    

Текущее время: Сегодня 18:29

Часовой пояс: GMT



Вы не можете начинать темы
Вы не можете отвечать на сообщения
Вы не можете редактировать свои сообщения
Вы не можете удалять свои сообщения
Вы не можете голосовать в опросах
Вы не можете прикреплять файлы к сообщениям
Вы не можете скачивать файлы