Горячий снег (Гавриил Егиазаров) [1972, СССР, драма, военный, HDTV 1080i]

 
Автор Сообщение

TorrentFilm ®

Пол:

Стаж: 2 года

Сообщений: 7741



Награды: Нет

Торрент-статистика

Создавать темы 07-Май-2015 00:04

[Цитировать]

Горячий снег- Страна: СССР
Жанр: Драма, военный
Год выпуска: 1972
Продолжительность: 01:38:50-Режиссер: Гавриил Егиазаров-В ролях: Георгий Жжёнов, Анатолий Кузнецов, Борис Токарев (I), Вадим Спиридонов, Тамара Седельникова, Ара Бабаджанян, Юрий Назаров, Алексей Панькин, Валентин Грачёв, Константин Тыртов, Болот Бейшеналиев, Игорь Ледогоров, Александр Кавалеров, Николай Ерёменко мл., Владимир Протасенко, Лев Золотухин, Павел Сиротин, Харий Швейц, Александр Воеводин, Вадим Власов, Владлен Бирюков, Альберт Дорожко, Михаил Стрелков-Описание: Фильм рассказывает об одном из эпизодов героического сражения против фашистов на подступах к Сталинграду, в котором в полной мере проявились стойкость и сила духа русских солдат, защищавших родную землю.-Доп. информация:
-Качество видео: HDTV (1080i)
Формат видео: TS
Видео: 1920x1080; 16:9; 25.000 fps; 8372 Kbps; 0.162 bit/pixel
Аудио: 48 kHz; 2 ch; 384.00 kbps; AC3 Dolby Digital / моно

MediaInfo

Format                                   : MPEG-TS
File size                                : 6.36 GiB
Duration                                 : 1h 38mn
Overall bit rate mode                    : Variable
Overall bit rate                         : 9 216 Kbps
Maximum Overall bit rate                 : 35.5 Mbps
Video
ID                                       : 4113 (0x1011)
Menu ID                                  : 1 (0x1)
Format                                   : AVC
Format/Info                              : Advanced Video Codec
Format profile                           : High@L4
Format settings, CABAC                   : Yes
Format settings, ReFrames                : 3 frames
Codec ID                                 : 27
Duration                                 : 1h 38mn
Bit rate mode                            : Variable
Bit rate                                 : 8 372 Kbps
Maximum bit rate                         : 40.0 Mbps
Width                                    : 1 920 pixels
Height                                   : 1 080 pixels
Display aspect ratio                     : 16:9
Frame rate                               : 25.000 fps
Standard                                 : Component
Color space                              : YUV
Chroma subsampling                       : 4:2:0
Bit depth                                : 8 bits
Scan type                                : Interlaced
Scan order                               : Top Field First
Bits/(Pixel*Frame)                       : 0.162
Stream size                              : 5.78 GiB (91%)
Color range                              : Limited
Color primaries                          : BT.709
Transfer characteristics                 : BT.709
Matrix coefficients                      : BT.709
Audio
ID                                       : 4352 (0x1100)
Menu ID                                  : 1 (0x1)
Format                                   : AC-3
Format/Info                              : Audio Coding 3
Mode extension                           : CM (complete main)
Format settings, Endianness              : Big
Codec ID                                 : 129
Duration                                 : 1h 38mn
Bit rate mode                            : Constant
Bit rate                                 : 384 Kbps
Channel(s)                               : 2 channels
Channel positions                        : Front: L R
Sampling rate                            : 48.0 KHz
Bit depth                                : 16 bits
Compression mode                         : Lossy
Stream size                              : 271 MiB (4%)
Language                                 : Russian

Скриншоты (превью - увеличение по клику):


ПРИЯТНОГО ПРОСМОТРА!
[Профиль] [ЛС]
Показать сообщения:    

Текущее время: Сегодня 04:28

Часовой пояс: GMT



Вы не можете начинать темы
Вы не можете отвечать на сообщения
Вы не можете редактировать свои сообщения
Вы не можете удалять свои сообщения
Вы не можете голосовать в опросах
Вы не можете прикреплять файлы к сообщениям
Вы не можете скачивать файлы