Горянка (Ирина Поплавская) [1975, драма, экранизация, DVB]

 
Автор Сообщение

reversefile ®

Пол:

Стаж: 4 года 5 месяцев

Сообщений: 842

Откуда: ReverseFile.org



Награды: Нет

Торрент-статистика

Создавать темы 11-Авг-2014 06:19

[Цитировать]

Горянка
Жанр: драма, экранизация
Год выпуска: 1975
Продолжительность: 01:03:47
Режиссёр: Ирина Поплавская
В ролях: Татьяна Шумова, Ислам Казиев, Рамаз Гиоргобиани, Абдурашид Махсудов, Патимат Хизроева, Барият Мурадова, Софья Пилявская, Нина Тер-Осипян, Фатима Хачимахова, Али Тухужев, Ипполит Хвичия, Муса Дудаев, Магомедамин Акмурзаев, Гасан Гаджиев, Махмуд Абдулхаликов
Описание: По мотивам одноименной поэмы Р.Гамзатова.
Горянка Асиат отказывается выйти замуж за богатого, намного старше ее человека, которому была обещана в жены с детства. Отец выгоняет Асиат из дома.
Доп. информация: Запись потока *.ts со спутника EUTELSAT 36A/B, 36° в.д., ремукс в *.mpg программой VideoReDo.
Качество видео: DVB
Формат видео: MPEG-РS
Видео: MPEG Video, 720x576 (4 : 3), 25,000 кадров/сек, 2604 Кбит/сек
Аудио: MPEG Audio, 48,0 КГц, 192 Кбит/сек, 2 канала

MediaInfo

Общее
Полное имя : D:\Torrent\ГОРЯНКА (Дом Кино).mpg
Формат : MPEG-PS
Размер файла : 1,27 Гбайт
Продолжительность : 1 ч. 3 м.
Режим общего битрейта : Переменный
Общий поток : 2853 Кбит/сек
Видео
Идентификатор : 224 (0xE0)
Формат : MPEG Video
Версия формата : Version 2
Профиль формата : Main@Main
Параметр BVOP формата : Да
Параметр матрицы формата : Выборочная
Параметр GOP формата : M=3, N=12
Продолжительность : 1 ч. 3 м.
Вид битрейта : Переменный
Битрейт : 2604 Кбит/сек
Максимальный битрейт : 5000 Кбит/сек
Ширина : 720 пикселей
Высота : 576 пикселей
Соотношение сторон : 4:3
Частота кадров : 25,000 кадров/сек
Стандарт вещания : PAL
Цветовое пространство : YUV
Субдискретизация насыщенности : 4:2:0
Битовая глубина : 8 бит
Тип развёртки : Чересстрочная
Порядок развёртки : Верхнее поле первое
Метод сжатия : С потерями
Бит/(Пиксели*Кадры) : 0.251
Временной код первого кадра : 00:00:00:00
Оригинал временного кода : Group of pictures header
Размер потока : 1,16 Гбайт (91%)
Аудио
Идентификатор : 192 (0xC0)
Формат : MPEG Audio
Версия формата : Version 1
Профиль формата : Layer 2
Продолжительность : 1 ч. 3 м.
Вид битрейта : Постоянный
Битрейт : 192 Кбит/сек
Каналы : 2 канала
Частота : 48,0 КГц
Метод сжатия : С потерями
Задержка видео : 20 мс.
Размер потока : 87,6 Мбайт (7%)
[Профиль] [ЛС]

Создавать темы 06-Авг-2015 22:04 (спустя 11 месяцев 26 дней)

Топик был перенесен из форума Кино СССР в форум Кино СССР
sergej644
 
Кто просматривает тему:

Форум Тема Автор Размер
Кино СССР Горянка (Ирина Поплавская) [1975, Драма, SATRip] reversefile 1.09 GB
Показать сообщения:    

Текущее время: Сегодня 00:50

Часовой пояс: GMT



Вы не можете начинать темы
Вы не можете отвечать на сообщения
Вы не можете редактировать свои сообщения
Вы не можете удалять свои сообщения
Вы не можете голосовать в опросах
Вы не можете прикреплять файлы к сообщениям
Вы не можете скачивать файлы