Горько! 2 (2014) WEB-DLRip-AVC от ExKinoRay

 
Автор Сообщение

sergej644 ®

Пол:

Стаж: 4 года 11 месяцев

Сообщений: 6035

Откуда: Soviet Union



Награды: Нет

Торрент-статистика

Создавать темы 01-Дек-2014 15:20

[Цитировать]

Информация о фильме
Оригинальное название: Горько! 2
Год выпуска: 2014
Жанр: Комедия, приключения
Выпущено: Россия, Базелевс Продакшн, Кинокомпания «Lunapark»
Режиссер: Жора Крыжовников
В ролях: Сергей Светлаков, Юлия Александрова, Егор Корешков, Ян Цапник, Сергей Лавыгин, Елена Валюшкина, Александр Паль, Валентина Мазунина, Юлия Стадник, Александр Робак
О фильме: В надежде сорвать большой куш Наташин отчим идет на финансовую авантюру, чем подставляет своих партнеров по бизнесу. Без лишних слов те устраивают на него покушение. Вся семья скорбит по Борису Ивановичу… а он в гробу все это видел. Ему бы три дня пролежать и похороны пережить, а там родные откопают и можно спать спокойно. И все идет по плану уцелевшего отчима, пока проститься с ним не приезжает боевой товарищ. Рубаха-парень Витька Каравай мгновенно покоряет всю семью, перетягивая общее внимание на себя. Задетый за живое, покойник заставляет родных устроить роскошные поминки с участием Светлакова…

Файл
Качество: WEB-DLRip (AVC)
Видео: MPEG-4 AVC, 3500 Кбит/с, 1024х540, 24 кадр/с
Аудио: АС3, 2 ch, 192 Кбит/с
Размер: 2.49 ГБ
Продолжительность: 01:36:21
Язык: Русский
Сохранены оригинальные чаптеры как на исходном WEB-DL.

x264

x264 [info]: frame I:1135 Avg QP:13.45 size:117597
x264 [info]: frame P:41505 Avg QP:17.09 size: 37437
x264 [info]: frame B:96197 Avg QP:21.32 size: 8760
x264 [info]: consecutive B-frames: 4.7% 9.7% 7.9% 66.8% 4.0% 4.9% 0.5% 0.9% 0.1% 0.5%
x264 [info]: mb I I16..4: 9.5% 51.2% 39.3%
x264 [info]: mb P I16..4: 0.9% 11.2% 2.5% P16..4: 25.9% 31.9% 13.8% 7.2% 1.2% skip: 5.4%
x264 [info]: mb B I16..4: 0.1% 1.3% 0.3% B16..8: 30.3% 21.5% 4.1% direct: 5.7% skip:36.7% L0:32.7% L1:44.4% BI:22.9%
x264 [info]: 8x8 transform intra:73.8% inter:42.5%
x264 [info]: direct mvs spatial:98.2% temporal:1.8%
x264 [info]: coded y,uvDC,uvAC intra: 90.6% 89.6% 74.8% inter: 26.0% 22.2% 14.2%
x264 [info]: i16 v,h,dc,p: 31% 14% 11% 44%
x264 [info]: i8 v,h,dc,ddl,ddr,vr,hd,vl,hu: 11% 12% 7% 8% 11% 11% 13% 12% 15%
x264 [info]: i4 v,h,dc,ddl,ddr,vr,hd,vl,hu: 14% 11% 6% 8% 13% 12% 13% 10% 13%
x264 [info]: i8c dc,h,v,p: 44% 23% 18% 16%
x264 [info]: Weighted P-Frames: Y:1.8% UV:0.5%
x264 [info]: ref P L0: 59.6% 13.2% 13.3% 4.5% 3.2% 2.1% 1.8% 1.0% 1.1% 0.1% 0.0%
x264 [info]: ref B L0: 88.7% 6.3% 2.3% 1.1% 0.7% 0.5% 0.3% 0.1%
x264 [info]: ref B L1: 96.5% 3.5%
x264 [info]: kb/s:3498.78

Инфо-файл

Общее
Уникальный идентификатор : 232064310414033781081181766481358698113 (0xAE95F5DFB9286C24863586F16F393681)
Полное имя : D:ЗагрузкиGorko.2.2014.x264.WEB-DLRip.(AVC).ExKinoRay.mkv
Формат : Matroska
Версия формата : Version 2
Размер файла : 2,49 Гбайт
Продолжительность : 1 ч. 36 м.
Общий поток : 3693 Кбит/сек
Название фильма : Горько!2.2014.Rip by: ollan
Дата кодирования : UTC 2014-12-01 13:22:28
Программа кодирования : mkvmerge v5.6.0 ('Kenya Kane') built on May 27 2012 16:44:04
Библиотека кодирования : libebml v1.2.3 + libmatroska v1.3.0
Видео
Идентификатор : 1
Формат : AVC
Формат/Информация : Advanced Video Codec
Профиль формата : High@L4.1
Параметр CABAC формата : Да
Параметр ReFrames формата : 9 кадров
Идентификатор кодека : V_MPEG4/ISO/AVC
Продолжительность : 1 ч. 36 м.
Битрейт : 3500 Кбит/сек
Ширина : 1024 пикселя
Высота : 540 пикселей
Соотношение сторон : 1,896
Режим частоты кадров : Постоянный
Частота кадров : 24,000 кадра/сек
Цветовое пространство : YUV
Субдискретизация насыщенности : 4:2:0
Битовая глубина : 8 бит
Тип развёртки : Прогрессивная
Бит/(Пиксели*Кадры) : 0.264
Размер потока : 2,31 Гбайт (93%)
Библиотека кодирования : x264 core 125 r2200 999b753
Настройки программы : cabac=1 / ref=9 / deblock=1:-3:-3 / analyse=0x3:0x133 / me=umh / subme=11 / psy=1 / psy_rd=1.00:0.10 / mixed_ref=1 / me_range=32 / chroma_me=1 / trellis=2 / 8x8dct=1 / cqm=0 / deadzone=21,11 / fast_pskip=0 / chroma_qp_offset=-3 / threads=12 / lookahead_threads=2 / sliced_threads=0 / nr=0 / decimate=0 / interlaced=0 / bluray_compat=0 / constrained_intra=0 / bframes=9 / b_pyramid=2 / b_adapt=2 / b_bias=0 / direct=3 / weightb=1 / open_gop=0 / weightp=2 / keyint=240 / keyint_min=23 / scenecut=40 / intra_refresh=0 / rc_lookahead=60 / rc=2pass / mbtree=1 / bitrate=3500 / ratetol=1.0 / qcomp=0.60 / qpmin=0 / qpmax=69 / qpstep=4 / cplxblur=20.0 / qblur=0.5 / ip_ratio=1.40 / aq=1:1.00
Язык : Russian
Default : Да
Forced : Нет
Аудио
Идентификатор : 2
Формат : AC-3
Формат/Информация : Audio Coding 3
Расширение режима : CM (complete main)
Параметр Endianness формата : Big
Идентификатор кодека : A_AC3
Продолжительность : 1 ч. 36 м.
Вид битрейта : Постоянный
Битрейт : 192 Кбит/сек
Каналы : 2 канала
Расположение каналов : Front: L R
Частота : 48,0 КГц
Битовая глубина : 16 бит
Метод сжатия : С потерями
Размер потока : 132 Мбайт (5%)
Язык : Russian
Default : Да
Forced : Нет
Меню
00:00:00.000 : ru:1
00:08:37.000 : ru:2
00:11:43.000 : ru:3
00:18:05.000 : ru:4
00:25:13.000 : ru:5
00:30:44.000 : ru:6
00:36:31.000 : ru:7
00:43:12.000 : ru:8
00:47:51.000 : ru:9
00:54:30.000 : ru:10
01:00:11.000 : ru:11
01:08:00.000 : ru:12
01:13:05.000 : ru:13
01:18:56.000 : ru:14
01:24:47.000 : ru:15
01:31:29.000 : ru:16

Скриншоты



Релиз от: Rip by:
[Профиль] [ЛС]
Показать сообщения:    

Текущее время: Сегодня 18:20

Часовой пояс: GMT



Вы не можете начинать темы
Вы не можете отвечать на сообщения
Вы не можете редактировать свои сообщения
Вы не можете удалять свои сообщения
Вы не можете голосовать в опросах
Вы не можете прикреплять файлы к сообщениям
Вы не можете скачивать файлы