Город принял (Вячеслав Максаков) [1979, детектив, DVB]

 
Автор Сообщение

reversefile ®

Пол:

Стаж: 4 года 11 месяцев

Сообщений: 842

Откуда: ReverseFile.org



Награды: Нет

Торрент-статистика

Создавать темы 25-Июл-2014 01:16

[Цитировать]

Город принял
16/07/14 торрент обновлен, запись трансляции ТК "Звезда" заменена на запись трансляции ТК "Москва Доверие", битрейт видео 3200 против 2638, полнее кадр, продолжительность больше на 2 минуты.
Важно: на видео местами баннер с названием фильма, смотрим 1-й скрин
Жанр: детектив
Год выпуска: 1979
Продолжительность: 01:15:18
Режиссёр: Вячеслав Максаков
В ролях: Михаил Чигарёв, Инна Аленикова, Александр Пороховщиков, Виктор Шульгин, Николай Граббе, Георгий Николаенко, Анатолий Наврузов
Описание: Рассказ об одних сутках оперативной части МУРа, куда поступают сведения обо всех происшествиях в городе. Бригаде майора Тихонова пришлось помогать роженице, разоблачать автомобильного афериста, участвовать в погоне за грабителями и в задержании опасного рецидивиста.
Доп. информация: Запись потока *.ts со спутника ABS-2, 75° в.д., ремукс в *.mpg программой VideoReDo.
Качество видео: DVB
Формат видео: MPEG-PS
Видео: MPEG Video, 720(768)x576 (4:3), 25,000 кадров/сек, 2 638 Кбит/сек
Аудио: MPEG Audio, 48,0 КГц, 192 Кбит/сек, 2 канала

MediaInfo

Общее
Полное имя : D:\Torrent\ГОРОД ПРИНЯЛ (Moskva Doverie).mpg
Формат : MPEG-PS
Размер файла : 1,81 Гбайт
Продолжительность : 1 ч. 15 м.
Режим общего битрейта : Переменный
Общий поток : 3446 Кбит/сек
Видео
Идентификатор : 224 (0xE0)
Формат : MPEG Video
Версия формата : Version 2
Профиль формата : Main@Main
Параметр BVOP формата : Да
Параметр матрицы формата : Выборочная
Параметр GOP формата : M=3, N=12
Продолжительность : 1 ч. 15 м.
Вид битрейта : Переменный
Битрейт : 3186 Кбит/сек
Максимальный битрейт : 15,0 Мбит/сек
Ширина : 720 пикселей
Высота : 576 пикселей
Соотношение сторон : 4:3
Частота кадров : 25,000 кадров/сек
Стандарт вещания : PAL
Цветовое пространство : YUV
Субдискретизация насыщенности : 4:2:0
Битовая глубина : 8 бит
Тип развёртки : Чересстрочная
Порядок развёртки : Верхнее поле первое
Метод сжатия : С потерями
Бит/(Пиксели*Кадры) : 0.307
Временной код первого кадра : 00:00:00:00
Оригинал временного кода : Group of pictures header
Размер потока : 1,68 Гбайт (92%)
Аудио
Идентификатор : 192 (0xC0)
Формат : MPEG Audio
Версия формата : Version 1
Профиль формата : Layer 2
Продолжительность : 1 ч. 15 м.
Вид битрейта : Постоянный
Битрейт : 192 Кбит/сек
Каналы : 2 канала
Частота : 48,0 КГц
Метод сжатия : С потерями
Задержка видео : 11 мс.
Размер потока : 103 Мбайт (6%)
[Профиль] [ЛС]

Создавать темы 06-Авг-2015 22:04 (спустя 1 год)

Топик был перенесен из форума Кино СССР в форум Кино СССР
sergej644
 
Кто просматривает тему:

Форум Тема Автор Размер
BBC BBC: Византия - сказания о трёх городах / Byzantium: A Tale of Three Cities [серии 1-3 из 3] (Грэхам Джонстон) [2013 г., Документальный, история, HDTVRip 720p] skorpionN 3.67 GB
BBC BBC: Невидимые города Италии / Italy's Invisible Cities [серии 1-3 из 3] (Harvey Lilley) [2016 г., Документальный, научно-популярный, история, исследования, SATRip] skorpionN 1.64 GB
Viasat History Viasat History: Секреты устройства античных городов / Building the Ancient City [серии 1-2 из 2] (Paul Elston) [2015 г., Документальный, научно-познавательный, история, HDTVRip 720p] skorpionN 3.04 GB
Трейлеры Валериан и город тысячи планет / Valerian and the City of a Thousand Planets (2017) WEBRip-1080p | Трейлер Russian Mafia 78 MB
Фильмы (HD Rips | 720p, 1080p) Затерянный город Z / The Lost City of Z (2016) WEB-DL 1080p | iTunes BOSS 4.64 GB
Фильмы (HD Rips | 720p, 1080p) Затерянный город Z / The Lost City of Z (2016) WEB-DL 720p | iTunes BOSS 4.19 GB
Фильмы 2016 года Затерянный город Z / The Lost City of Z (2016) WEB-DLRip | iTunes BOSS 1.46 GB
Зарубежные сериалы Изумрудный город / Emerald City (Сезон 1, Серия 1-10 из 10) (Тарсем Сингх) [2017 , Фэнтези, WEB-DLRip 1080p] [SDI-Media , LostFilm , NewStudio ,AlexFilm , English] + [Subs Rus,ENG] Враг Нароода 21.96 GB
Показать сообщения:    

Текущее время: Сегодня 07:26

Часовой пояс: GMT



Вы не можете начинать темы
Вы не можете отвечать на сообщения
Вы не можете редактировать свои сообщения
Вы не можете удалять свои сообщения
Вы не можете голосовать в опросах
Вы не можете прикреплять файлы к сообщениям
Вы не можете скачивать файлы