Город потерянных детей / La cité des enfants perdus (1995) BDRip 720p

 
Автор Сообщение

Russian Mafia ®

Пол:

Стаж: 1 год 8 месяцев

Сообщений: 4256



Награды: 10 (Подробнее)

Top Releaser 3 (Количество: 1) Mega Seeder 1 (Количество: 1) Top Releaser 4 (Количество: 1)
Торрент-статистика

Создавать темы 22-Июл-2016 14:12

[Цитировать]

Информация о фильме
Название: Город потерянных детей
Оригинальное название: La cité des enfants perdus
Год выхода: 1995
Жанр: фантастика, фэнтези, драма, приключения
Режиссер: Марк Каро, Жан-Пьер Жёне
В ролях: Рон Перлман, Жюдит Витте, Доминик Пинон, Даниэль Эмильфорк, Жан-Клод Дрейфус, Женевьев Бруне, Одиль Мале, Мирей Моссе, Серж Мерлен, Рюфюс
О фильме: Недалеко от гавани пропитанного сыростью и окутанного туманом мрачного Города потерянных детей, в замке на берегу моря живет страшный ученый по имени Кранк, преждевременно постаревший из-за полной неспособности спать. По приказу Кранка его подручные-циклопы похищают детей и затаскивают в мрачную лабораторию, где злодей-ученый превращает их сны в свои собственные.
Но из-за того, что дети ужасно его боятся, он видит только их кошмары. В поисках пропавшего младшего брата в Город приходит цирковой силач Один. Ему помогает храбрая девятилетняя девочка Миетт и ее бригада маленьких бойцов сопротивления …

Выпущено: Claudie Ossard Productions
Продолжительность: 01:52:35
Перевод: Многоголосый закадровый (Екатеринбург Арт) + Авторский (Ю.Живов)
Файл
Кодек: x264
Качество: BDRip (источник: Blu-ray Disc)
Видео: 1280x694 (1,85:1), 23.976 fps, 5120 kbps
Аудио #1: AC-3, 6 ch, 448 kbps (Многоголосый закадровый, Екатеринбург Арт)
Аудио #2: AC-3, 6 ch, 448 kbps (Одноголосый закадровый, Ю.Живов)
Аудио #3: AC-3, 6 ch, 448 kbps (Original)
Субтитры: Русские
Скачать: сэмпл
Скриншоты

MI

Общее
Уникальный идентификатор : 241400023861308068804194172213263880664 (0xB59BF4157F684E2DA3E003DBF96851D8)
Полное имя : La.cite.des.enfants.perdus.1995.BDRip.720p.Rus.Fre.mkv
Формат : Matroska
Версия формата : Version 2
Размер файла : 5,09 Гбайт
Продолжительность : 1 ч. 52 м.
Общий поток : 6467 Кбит/сек
Название фильма : Город потерянных детей / La cité des enfants perdus (1995)
Дата кодирования : UTC 2014-07-01 17:47:22
Программа кодирования : mkvmerge v5.8.0 ('No Sleep / Pillow') built on Sep 2 2012 15:37:04
Библиотека кодирования : libebml v1.2.3 + libmatroska v1.3.0
Видео
Идентификатор : 1
Формат : AVC
Формат/Информация : Advanced Video Codec
Профиль формата : High@L4.1
Параметр CABAC формата : Да
Параметр ReFrames формата : 9 кадров
Идентификатор кодека : V_MPEG4/ISO/AVC
Продолжительность : 1 ч. 52 м.
Битрейт : 5121 Кбит/сек
Ширина : 1280 пикселей
Высота : 694 пикселя
Соотношение сторон : 1,85:1
Режим частоты кадров : Постоянный
Частота кадров : 23,976 кадра/сек
Цветовое пространство : YUV
Субдискретизация насыщенности : 4:2:0
Битовая глубина : 8 бит
Тип развёртки : Прогрессивная
Бит/(Пиксели*Кадры) : 0.240
Размер потока : 3,93 Гбайт (77%)
Заголовок : Release by AlexKa
Библиотека кодирования : x264 core 142 r2431 ac76440
Настройки программы : cabac=1 / ref=9 / deblock=1:-3:-3 / analyse=0x3:0x133 / me=umh / subme=11 / psy=1 / psy_rd=1.00:0.10 / mixed_ref=1 / me_range=32 / chroma_me=1 / trellis=2 / 8x8dct=1 / cqm=0 / deadzone=21,11 / fast_pskip=0 / chroma_qp_offset=-3 / threads=12 / lookahead_threads=2 / sliced_threads=0 / nr=0 / decimate=0 / interlaced=0 / bluray_compat=0 / constrained_intra=0 / bframes=9 / b_pyramid=2 / b_adapt=2 / b_bias=0 / direct=3 / weightb=1 / open_gop=0 / weightp=2 / keyint=240 / keyint_min=23 / scenecut=40 / intra_refresh=0 / rc=2pass / mbtree=0 / bitrate=5121 / ratetol=1.0 / qcomp=0.60 / qpmin=0 / qpmax=69 / qpstep=4 / cplxblur=20.0 / qblur=0.5 / ip_ratio=1.40 / pb_ratio=1.30 / aq=1:0.80
Язык : French
Аудио #1
Идентификатор : 2
Формат : AC-3
Формат/Информация : Audio Coding 3
Расширение режима : CM (complete main)
Параметр Endianness формата : Big
Идентификатор кодека : A_AC3
Продолжительность : 1 ч. 52 м.
Вид битрейта : Постоянный
Битрейт : 448 Кбит/сек
Каналы : 6 каналов
Расположение каналов : Front: L C R, Side: L R, LFE
Частота : 48,0 КГц
Битовая глубина : 16 бит
Метод сжатия : С потерями
Размер потока : 361 Мбайт (7%)
Заголовок : Многоголосый закадровый, Екатеринбург Арт
Язык : Russian
Аудио #2
Идентификатор : 3
Формат : AC-3
Формат/Информация : Audio Coding 3
Расширение режима : CM (complete main)
Параметр Endianness формата : Big
Идентификатор кодека : A_AC3
Продолжительность : 1 ч. 52 м.
Вид битрейта : Постоянный
Битрейт : 448 Кбит/сек
Каналы : 6 каналов
Расположение каналов : Front: L C R, Side: L R, LFE
Частота : 48,0 КГц
Битовая глубина : 16 бит
Метод сжатия : С потерями
Размер потока : 361 Мбайт (7%)
Заголовок : Одноголосый закадровый, Ю.Живов
Язык : Russian
Аудио #3
Идентификатор : 4
Формат : AC-3
Формат/Информация : Audio Coding 3
Расширение режима : CM (complete main)
Параметр Endianness формата : Big
Идентификатор кодека : A_AC3
Продолжительность : 1 ч. 52 м.
Вид битрейта : Постоянный
Битрейт : 448 Кбит/сек
Каналы : 6 каналов
Расположение каналов : Front: L C R, Side: L R, LFE
Частота : 48,0 КГц
Битовая глубина : 16 бит
Метод сжатия : С потерями
Размер потока : 361 Мбайт (7%)
Заголовок : Original
Язык : French
Текст
Идентификатор : 5
Формат : UTF-8
Идентификатор кодека : S_TEXT/UTF8
Идентификатор кодека/Информация : UTF-8 Plain Text
Заголовок : Rus
Язык : Russian
Меню
00:00:00.000 : :Chapter 01
00:04:38.652 : :Chapter 02
00:06:55.330 : :Chapter 03
00:13:10.497 : :Chapter 04
00:15:19.334 : :Chapter 05
00:17:39.141 : :Chapter 06
00:19:19.574 : :Chapter 07
00:23:44.881 : :Chapter 08
00:26:26.375 : :Chapter 09
00:33:08.485 : :Chapter 10
00:38:31.766 : :Chapter 11
00:41:03.877 : :Chapter 12
00:43:25.436 : :Chapter 13
00:50:16.178 : :Chapter 14
00:55:27.281 : :Chapter 15
00:59:26.521 : :Chapter 16
01:02:28.911 : :Chapter 17
01:04:50.677 : :Chapter 18
01:09:35.711 : :Chapter 19
01:10:19.546 : :Chapter 20
01:12:39.688 : :Chapter 21
01:14:52.029 : :Chapter 22
01:16:45.599 : :Chapter 23
01:19:13.538 : :Chapter 24
01:24:07.332 : :Chapter 25
01:35:03.404 : :Chapter 26
01:36:28.822 : :Chapter 27
01:43:26.324 : :Chapter 28

x264

x264 [info]: frame I:1193 Avg QP:14.91 size:121053
x264 [info]: frame P:32947 Avg QP:18.79 size: 49406
x264 [info]: frame B:127812 Avg QP:21.32 size: 19960
x264 [info]: consecutive B-frames: 1.5% 1.8% 4.5% 22.5% 18.7% 32.9% 8.3% 5.3% 2.5% 1.8%
ЦитатаAlexKa писал:Русские дорожки сделал сам, эксклюзив :)
Екатеринбург Арт здесь звучит лучше чем в ремуксе, Живова в ремуксе нет.
Дорожка СТС плохого качества, в релиз включать не стал.
[Профиль] [ЛС]
Кто просматривает тему:

Форум Тема Автор Размер
Chanson (Шансон) VA - В город пришла весна. Душевный сборник к празднику - 2015, MP3, 256 kbps Magnat 697 MB
Альтернативная история и наука BBC. Древние затерянные города. Исчезнувшая столица фараона / Lost Cities of the Ancients. The Vanished Capital of the Pharaoh (2006) HDTV [H.264/1080i-LQ] KottoSoft 2.43 GB
BBC BBC: Византия - сказания о трёх городах / Byzantium: A Tale of Three Cities [серии 1-3 из 3] (Грэхам Джонстон) [2013 г., Документальный, история, HDTVRip 720p] skorpionN 3.67 GB
National Geographic NG: Исследователь 2.0: Проклятие затерянного города: Легенда о "Городе обезьяньего бога" / Explorer. Legend of the monkey God [сезон 8 эпизод 02] (Graham Townsley) [2015 г., Документальный,... skorpionN 1.44 GB
Viasat History Viasat History: Секреты устройства античных городов / Building the Ancient City [серии 1-2 из 2] (Paul Elston) [2015 г., Документальный, научно-познавательный, история, HDTVRip 720p] skorpionN 3.04 GB
Программы [Разное] Город потерянных душ v1.0 [Android 2.0+, RUS] TorrentFilm 2 MB
Программы [Разное] Чикаго ночной город Живые обои 1.0 [Android 2.3, RUS + ENG] TorrentFilm 9 MB
Детская литература Александр Волков - Волшебник Изумрудного города [Читает Николай Литвинов, 128 kbps] sergej644 103 MB
Показать сообщения:    

Текущее время: Сегодня 18:39

Часовой пояс: GMT



Вы не можете начинать темы
Вы не можете отвечать на сообщения
Вы не можете редактировать свои сообщения
Вы не можете удалять свои сообщения
Вы не можете голосовать в опросах
Вы не можете прикреплять файлы к сообщениям
Вы не можете скачивать файлы