Город монстров / Tales of Halloween (Даррен Линн Боусман / Darren Lynn Bousman, Адам Гираш / Adam Gierasch, Нил Маршалл / Neil Marshall) [2015, США, ужасы, HDRip] Dub (Line)

 
Автор Сообщение

TorrentFilm ®

Пол:

Стаж: 2 года

Сообщений: 7741



Награды: Нет

Торрент-статистика

Создавать темы 03-Янв-2016 00:17

[Цитировать]

Город монстров / Tales of Halloween
Страна: США
Жанр: ужасы
Год выпуска: 2015
Продолжительность: 01:37:15
Перевод: Профессиональный (дублированный) Line
Cубтитры: нет
Оригинальная аудиодорожка: нет
Режиссер: Даррен Линн Боусман / Darren Lynn Bousman, Адам Гираш / Adam Gierasch, Нил Маршалл / Neil Marshall
В ролях: Эдриенн Барбо, Хантер Смит, Камерон Истон, Кэролин Уильямс, Роберт Раслер, Клэр Крамер, Грег Гранберг, Дэниэл ДиМаджио, Остин Фальк, Мэдисон Исман
Описание: Десять историй, объединенные одной общей темой Хэллоуина, переплетаются вместе в американском пригороде, где упыри, черти, пришельцы и убийцы с топором появляются только в течение одной ночи, чтобы терроризировать ничего не подозревающих жителей.
Сэмпл: http://multi-up.com/1079129
Качество видео: HDRip (исходник не известен)
Формат видео: AVI
Видео: 720x304 (2.37:1), 24 fps, XviD build 73 ~1735 kbps avg, 0.33 bit/pixel
Аудио: 48 kHz, AC3 Dolby Digital, 2/0 (L,R) ch, ~384 kbps

MediaInfo

Format : AVI
Format/Info : Audio Video Interleave
File size : 1.45 GiB
Duration : 1h 37mn
Overall bit rate : 2 129 Kbps
Writing application : VirtualDubMod 1.5.10.3 | www.virtualdub-fr.org || (build 2550/release)
Writing library : VirtualDubMod build 2550/release
Video
ID : 0
Format : MPEG-4 Visual
Format profile : AdvancedSimple@L5
Format settings, BVOP : Yes
Format settings, QPel : No
Format settings, GMC : No warppoints
Format settings, Matrix : Custom
Codec ID : XVID
Codec ID/Hint : XviD
Duration : 1h 37mn
Bit rate : 1 736 Kbps
Width : 720 pixels
Height : 304 pixels
Display aspect ratio : 2.35:1
Frame rate : 24.000 fps
Resolution : 24 bits
Colorimetry : 4:2:0
Scan type : Progressive
Bits/(Pixel*Frame) : 0.330
Stream size : 1.18 GiB (82%)
Writing library : XviD 73
Audio
ID : 1
Format : AC-3
Format/Info : Audio Coding 3
Codec ID : 2000
Duration : 1h 37mn
Bit rate mode : Constant
Bit rate : 384 Kbps
Channel(s) : 2 channels
Channel positions : L R
Sampling rate : 48.0 KHz
Stream size : 267 MiB (18%)
Alignment : Split accross interleaves
Interleave, duration : 42 ms (1.00 video frame)
Interleave, preload duration : 500 ms

Скриншот c названием фильма

Скриншоты

[Профиль] [ЛС]
Кто просматривает тему:

Форум Тема Автор Размер
Chanson (Шансон) VA - В город пришла весна. Душевный сборник к празднику - 2015, MP3, 256 kbps Magnat 697 MB
Альтернативная история и наука BBC. Древние затерянные города. Исчезнувшая столица фараона / Lost Cities of the Ancients. The Vanished Capital of the Pharaoh (2006) HDTV [H.264/1080i-LQ] KottoSoft 2.43 GB
BBC BBC: Византия - сказания о трёх городах / Byzantium: A Tale of Three Cities [серии 1-3 из 3] (Грэхам Джонстон) [2013 г., Документальный, история, HDTVRip 720p] skorpionN 3.67 GB
National Geographic NG: Исследователь 2.0: Проклятие затерянного города: Легенда о "Городе обезьяньего бога" / Explorer. Legend of the monkey God [сезон 8 эпизод 02] (Graham Townsley) [2015 г., Документальный,... skorpionN 1.44 GB
Viasat History Viasat History: Секреты устройства античных городов / Building the Ancient City [серии 1-2 из 2] (Paul Elston) [2015 г., Документальный, научно-познавательный, история, HDTVRip 720p] skorpionN 3.04 GB
Программы [Разное] Город потерянных душ v1.0 [Android 2.0+, RUS] TorrentFilm 2 MB
Программы [Разное] Чикаго ночной город Живые обои 1.0 [Android 2.3, RUS + ENG] TorrentFilm 9 MB
Детская литература Александр Волков - Волшебник Изумрудного города [Читает Николай Литвинов, 128 kbps] sergej644 103 MB
Показать сообщения:    

Текущее время: Сегодня 20:25

Часовой пояс: GMT



Вы не можете начинать темы
Вы не можете отвечать на сообщения
Вы не можете редактировать свои сообщения
Вы не можете удалять свои сообщения
Вы не можете голосовать в опросах
Вы не можете прикреплять файлы к сообщениям
Вы не можете скачивать файлы