Город мастеров (Владимир Бычков) [1965, СССР, сказка, DVD5] ["CP Digital"] Sub (Rus, Eng)

 
Автор Сообщение

TorrentFilm ®

Пол:

Стаж: 2 года

Сообщений: 7741



Награды: Нет

Торрент-статистика

Создавать темы 01-Янв-2016 00:07

[Цитировать]

Город мастеров
Страна: СССР
Студия: "Беларусьфильм"
Жанр: сказка
Год выпуска: 1965
Продолжительность: 01:19:12
Cубтитры: есть (русские, английские)
Режиссер: Владимир Бычков
В ролях: Георгий Лапето (озвучание - Игорь Ясулович), Марианна Вертинская, Лев Лемке, Савелий Крамаров (озвучание - Георгий Штиль), Алексей Барановский, Вася Бычков, Зиновий Гердт, Леонид Каневский, Игорь Комаров, Владимир Козлов, Олег Каравайчук, Владимир Кремена, Роберт Святополк-Мирский, Карп Мукасьян, Миколас Орбакас, Георгий Тейх, Елизавета Уварова, Роман Филиппов, Валерий Носик, Николай Харитонов, Юрий Харченко, Павел Шпрингфельд, Виталий Щенников, Станислав Щукин, Андрей Юренев, Игорь Ясулович, Слава Цюпа, Елена Цорн
Описание: Был некогда на земле старинный вольный Город мастеров. Люди, которые в нём жили, были настоящие мастера своего дела. И жил в этом городе метельщик (или, говоря современным языком, - дворник) Жильберт по прозвищу Караколь (что значит "улитка"), которого любили все жители, несмотря на то, что был он горбат. Его любили, потому что был он добр, весел, умён, красив и отважен. В него была влюблена и золотошвейка Вероника, дочь мастера Фирена, первая красавица города. Но однажды обрушилось великое несчастье - иноземные солдаты под предводительством герцога де Маликорна напали нежданно-негаданно. Силой и жестокостью овладели они вольным городом, а тех, кто мог поднять против них меч, казнили, изгнали в леса или запрятали в Башню молчания. С тех пор тихо и пустынно стало на улицах. Люди перестали смеяться, плясать, петь веселые песни. Все со страхом оглядывались на замок, где жил герцог, который издавал жестокие приказы о казнях и штрафах. Но какой он из себя - никто не знал. Ни один житель города не видел его в лицо...
Доп. информация: По мотивам пьесы Тамары Габбе "Город мастеров, или Сказка о двух горбунах".
Сценарий: Николай Эрдман
Операторы: Михаил Ардабьевский, Александр Княжинский
Художник: Александр Бойм
Композитор: Олег Каравайчук
Стихи: Самуил Маршак, Зиновий Гердт
Вокал: Марианна Вертинская, Георгий Лапето (дуэт Вероники и Караколя), Савелий Крамаров, Георгий Штиль (песенка Клик-Кляка)
Награды: гран-при за лучший фильм для детей и юношества на II ВКФ в Киеве (1966); дипломы Союза кинематографистов СССР художнику А.Бойму и режиссёру В.Бычкову; гран-при КФ республик Закавказья, Прибалтики и Украины (Вильнюс, 1966)
Ограничения на просмотр: для любой зрительской аудитории

Афиша

Интересные факты

  • Фильм включён журналом «Искусство кино» в число лучших детских фильмов за сто лет существования кинематографа.
  • Первая и единственная главная роль в кино актера Георгия Лапето. Нынче он выглядит вот так:

    скрытый текст

Бонусы: каталог изданий "CP Digital", "Смотрите на DVD", "Создатели и исполнители" (фильмографии)
Меню: есть, на русском и английском языках, статично-анимированное, озвученное
Тип релиза: DVD5
Контейнер: DVD-Video
Видео: NTCS 4:3 (720x480), 29,970 fps, 5940 kbps, VBR, 0.57 bpp
Аудио 1: Russian (Dolby AC3, 48 kHz, 6 ch, 448 kbps)
Аудио 2: Russian (Dolby AC3, 48 kHz, 2 ch, 224 kbps)
Субтитры: Russian, English (RLE)

MediaInfo

Полное имя : \Город мастеров\VIDEO_TS\VTS_01_1.VOB
Формат : MPEG-PS
Размер файла : 1024 Мбайт
Продолжительность : 21 м.
Режим общего битрейта : Переменный
Общий поток : 6746 Кбит/сек
Видео
Идентификатор : 224 (0xE0)
Формат : MPEG Video
Версия формата : Version 2
Профиль формата : Main@Main
Параметр BVOP формата : Да
Параметр матрицы формата : Выборочная
Продолжительность : 21 м.
Вид битрейта : Переменный
Битрейт : 5940 Кбит/сек
Максимальный битрейт : 9000 Кбит/сек
Ширина : 720 пикселей
Высота : 480 пикселей
Соотношение сторон : 4:3
Частота кадров : 29,970 кадров/сек
Стандарт вещания : NTSC
Цветовое пространство : YUV
Субдискретизация насыщенности : 4:2:0
Битовая глубина : 8 бит
Тип развёртки : Чересстрочная
Порядок развёртки : Верхнее поле первое
Метод сжатия : С потерями
Бит/(Пиксели*Кадры) : 0.573
Размер потока : 902 Мбайт (88%)
Аудио #1
Идентификатор : 189 (0xBD)-128 (0x80)
Формат : AC-3
Формат/Информация : Audio Coding 3
Расширение режима : CM (complete main)
Параметр Endianness формата : Big
Режим смешивания : DVD-Video
Продолжительность : 21 м.
Вид битрейта : Постоянный
Битрейт : 448 Кбит/сек
Каналы : 6 каналов
Расположение каналов : Front: L C R, Side: L R, LFE
Частота : 48,0 КГц
Битовая глубина : 16 бит
Метод сжатия : С потерями
Задержка видео : -66 мс.
Размер потока : 68,0 Мбайт (7%)
Аудио #2
Идентификатор : 189 (0xBD)-129 (0x81)
Формат : AC-3
Формат/Информация : Audio Coding 3
Расширение режима : CM (complete main)
Параметр Endianness формата : Big
Режим смешивания : DVD-Video
Продолжительность : 21 м.
Вид битрейта : Постоянный
Битрейт : 224 Кбит/сек
Каналы : 2 канала
Расположение каналов : Front: L R
Частота : 48,0 КГц
Битовая глубина : 16 бит
Метод сжатия : С потерями
Задержка видео : -66 мс.
Размер потока : 34,0 Мбайт (3%)
Текст #1
Идентификатор : 189 (0xBD)-32 (0x20)
Формат : RLE
Формат/Информация : Run-length encoding
Режим смешивания : DVD-Video
Текст #2
Идентификатор : 189 (0xBD)-33 (0x21)
Формат : RLE
Формат/Информация : Run-length encoding
Режим смешивания : DVD-Video

DVDInfo

Title:
Size: 4.28 Gb ( 4 483 338 KBytes ) - DVD-5
Enabled regions: 1, 2, 3, 4, 5, 6, 7, 8
VTS_01 :
Play Length: 01:19:12
Video: NTCS 4:3 (720x480) VBR
Audio:
Russian (Dolby AC3, 6 ch)
Russian (Dolby AC3, 2 ch)
Subtitles:
Russian
English
VTS_02 :
Play Length: 00:00:10
Video: NTCS 4:3 (720x480) VBR
VTS_03 :
Play Length: 00:00:11
Video: NTCS 4:3 (720x480) VBR
Audio:
Russian (Dolby AC3, 6 ch)
Menu Video:
NTCS 4:3 (720x480) VBR
Menu English Language Unit :
Root Menu

Сканы обложки и диска

Скриншоты меню

Скриншоты доп. материалов

Скриншоты

Сравнение

http://torrentfilm.net/forum/viewtopic.php?t=341230 - с нелицензионным DVD
http://screenshotcomparison.com/comparison/2310
Качество видео одинаковое. Однако, другая раздача, созданная в виде образа, что запрещено правилами раздела, в распакованном виде имеет объем 3.87 GB вместо лицензионных 4.27 GB, поскольку удалены все дополнительные материалы, хотя кнопки в меню оставлены. Но само меню статично (фигурки в окнах не двигаются, отсутствуют часть меню на английском языке, дополнительные заставки в виде открывающихся ставней) и имеет несколько иной вид - http://screenshotcomparison.com/comparison/2311
К тому же, переделанный диск запускается неправильно: заставка -> фильм -> меню. Причем, заставка не "CP Digital", а "Video Biz".

скрытый текст

[Профиль] [ЛС]
Кто просматривает тему:

Форум Тема Автор Размер
Chanson (Шансон) VA - В город пришла весна. Душевный сборник к празднику - 2015, MP3, 256 kbps Magnat 697 MB
Альтернативная история и наука BBC. Древние затерянные города. Исчезнувшая столица фараона / Lost Cities of the Ancients. The Vanished Capital of the Pharaoh (2006) HDTV [H.264/1080i-LQ] KottoSoft 2.43 GB
BBC BBC: Византия - сказания о трёх городах / Byzantium: A Tale of Three Cities [серии 1-3 из 3] (Грэхам Джонстон) [2013 г., Документальный, история, HDTVRip 720p] skorpionN 3.67 GB
National Geographic NG: Исследователь 2.0: Проклятие затерянного города: Легенда о "Городе обезьяньего бога" / Explorer. Legend of the monkey God [сезон 8 эпизод 02] (Graham Townsley) [2015 г., Документальный,... skorpionN 1.44 GB
Viasat History Viasat History: Секреты устройства античных городов / Building the Ancient City [серии 1-2 из 2] (Paul Elston) [2015 г., Документальный, научно-познавательный, история, HDTVRip 720p] skorpionN 3.04 GB
Программы [Разное] Город потерянных душ v1.0 [Android 2.0+, RUS] TorrentFilm 2 MB
Программы [Разное] Чикаго ночной город Живые обои 1.0 [Android 2.3, RUS + ENG] TorrentFilm 9 MB
Детская литература Александр Волков - Волшебник Изумрудного города [Читает Николай Литвинов, 128 kbps] sergej644 103 MB
Показать сообщения:    

Текущее время: Сегодня 01:10

Часовой пояс: GMT



Вы не можете начинать темы
Вы не можете отвечать на сообщения
Вы не можете редактировать свои сообщения
Вы не можете удалять свои сообщения
Вы не можете голосовать в опросах
Вы не можете прикреплять файлы к сообщениям
Вы не можете скачивать файлы