Город мастеров медовых дел / Meemeistrite linn (Хейно Парс / Heino Pars) [1983, кукольный мультфильм, TVRip] MVO

 
Автор Сообщение

TorrentFilm ®

Пол:

Стаж: 2 года

Сообщений: 7741



Награды: Нет

Торрент-статистика

Создавать темы 20-Май-2015 00:04

[Цитировать]

Город мастеров медовых дел / Meemeistrite linn
Страна: СССР (Эстонская республика)
Жанр: кукольный мультфильм
Продолжительность: 00:19:52
Год выпуска: 1983
Перевод: Любительский (многоголосый закадровый)
Русские субтитры: нет
Режиссёр: Хейно Парс / Heino Pars
Русская озвучка: progulkin & Co
Описание: Познавательный мультфильм, в игровой форме рассказывающий об укладе жизни и порядках, установленных в пчелином улье.
Качество: TVRip
Формат: AVI
Видео: 2162 kbps, 640х512 (5:4), 25.000 fps, MPEG-4 Visual (XviD)
Аудио: 256 kbps, 44.1 kHz, 2 channels, MPEG Audio (MP3)
Субтитры: отсутствуют

Подробные технические данные

General
Complete name : Meemeistrite linn (1983).avi
Format : AVI
Format/Info : Audio Video Interleave
File size : 345 MiB
Duration : 19mn 52s
Overall bit rate : 2 430 Kbps
Writing application : Lavf55.33.100
Video
ID : 0
Format : MPEG-4 Visual
Format profile : Simple@L3
Format settings, BVOP : No
Format settings, QPel : No
Format settings, GMC : No warppoints
Format settings, Matrix : Default (H.263)
Codec ID : XVID
Codec ID/Hint : XviD
Duration : 19mn 52s
Bit rate : 2 162 Kbps
Width : 640 pixels
Height : 512 pixels
Display aspect ratio : 5:4
Frame rate : 25.000 fps
Color space : YUV
Chroma subsampling : 4:2:0
Bit depth : 8 bits
Scan type : Progressive
Compression mode : Lossy
Bits/(Pixel*Frame) : 0.264
Stream size : 307 MiB (89%)
Writing library : XviD 64
Audio
ID : 1
Format : MPEG Audio
Format version : Version 1
Format profile : Layer 3
Mode : Joint stereo
Mode extension : MS Stereo
Codec ID : 55
Codec ID/Hint : MP3
Duration : 19mn 49s
Bit rate mode : Constant
Bit rate : 256 Kbps
Channel(s) : 2 channels
Sampling rate : 44.1 KHz
Compression mode : Lossy
Stream size : 36.3 MiB (11%)
Alignment : Aligned on interleaves
Interleave, duration : 26 ms (0.65 video frame)
Interleave, preload duration : 26 ms
Writing library : LAME3.99.5

Скриншоты

[Профиль] [ЛС]
Кто просматривает тему:

Форум Тема Автор Размер
Chanson (Шансон) VA - В город пришла весна. Душевный сборник к празднику - 2015, MP3, 256 kbps Magnat 697 MB
Альтернативная история и наука BBC. Древние затерянные города. Исчезнувшая столица фараона / Lost Cities of the Ancients. The Vanished Capital of the Pharaoh (2006) HDTV [H.264/1080i-LQ] KottoSoft 2.43 GB
BBC BBC: Византия - сказания о трёх городах / Byzantium: A Tale of Three Cities [серии 1-3 из 3] (Грэхам Джонстон) [2013 г., Документальный, история, HDTVRip 720p] skorpionN 3.67 GB
National Geographic NG: Исследователь 2.0: Проклятие затерянного города: Легенда о "Городе обезьяньего бога" / Explorer. Legend of the monkey God [сезон 8 эпизод 02] (Graham Townsley) [2015 г., Документальный,... skorpionN 1.44 GB
Viasat History Viasat History: Секреты устройства античных городов / Building the Ancient City [серии 1-2 из 2] (Paul Elston) [2015 г., Документальный, научно-познавательный, история, HDTVRip 720p] skorpionN 3.04 GB
Программы [Разное] Город потерянных душ v1.0 [Android 2.0+, RUS] TorrentFilm 2 MB
Программы [Разное] Чикаго ночной город Живые обои 1.0 [Android 2.3, RUS + ENG] TorrentFilm 9 MB
Детская литература Александр Волков - Волшебник Изумрудного города [Читает Николай Литвинов, 128 kbps] sergej644 103 MB
Показать сообщения:    

Текущее время: Сегодня 06:28

Часовой пояс: GMT



Вы не можете начинать темы
Вы не можете отвечать на сообщения
Вы не можете редактировать свои сообщения
Вы не можете удалять свои сообщения
Вы не можете голосовать в опросах
Вы не можете прикреплять файлы к сообщениям
Вы не можете скачивать файлы