Город живых мертвецов / City of the Living Dead [1980 г., ужасы, BDRip 720p] [MVO, AVO]

 
Автор Сообщение

Bathory ®

Пол:

Стаж: 8 месяцев 27 дней

Сообщений: 168



Награды: 3 (Подробнее)

Girls (Количество: 1) За внесенный вклад в развитие сайта (Количество: 1) Друг (Количество: 1)
Торрент-статистика

Создавать темы 08-Мар-2016 12:38

[Цитировать]

Город живых мертвецов / City of the Living Dead- Информация о фильме
Название: Город живых мертвецов
Оригинальное название: City of the Living Dead
Год выхода: 1980
Жанр: ужасы
Режиссер: Лучио Фульчи
В ролях: Кристофер Джордж, Катриона МакКолл, Карло Де Мейо, Антонелла Интерленьи, Джованни Ломбардо Радице, Даниела Дория, Фабрицио Жовин, Люка Венантини, Микеле Соави, Венантино Венантини, Энзо Д’Осилио, Аделаида Асте, Лючано Росси, Роберт Сэмпсон, Джанет Агрен, Лучио Фульчи, Майкл Гонт, Перри Пирканен, Мартин Соррентино
О фильме:
Женщина-медиум во время спиритического сеанса увидела город Данвич, где вскоре должны разверзнутся врата ада. От ужаса она впала в летаргию и едва не была похоронена заживо. Уже из могилы ее откопал не то журналист, не то частный детектив, и они вдвоем отправились на поиски страшного города, чтобы предотвратить катастрофу. А в Данвиче тем временем оживали мертвецы, шел дождь из трупных червей, увидев призрак, девушка выблевала все внутренности, а одному пареньку просверлили голову на станке.

Страна: Италия
Студия: Dania Film, Medusa Distribuzione, National Cinematografica
Продолжительность: 01:31:24
Перевод: 1. Профессиональный (многоголосый, закадровый) R5
2. Авторский (одноголосый закадровый) Гаврилов
3. Авторский (одноголосый закадровый) Штейн
4. Авторский (одноголосый закадровый) Костюкевич
Файл
Кодек: AVC
Качество: BDRip 720p
Видео: 1280x688, 4934 kbps, 23,976 fps, 0,234 Bits/(Pixel*Frame)
Звук:
1. AC3, 48 kHz, 6 ch, 384 kbps - R5
2. AC3, 48 kHz, 6 ch, 384 kbps - Гаврилов
3. AC3, 48 kHz, 6 ch, 448 kbps - Штейн
4. AC3, 48 kHz, 6 ch, 384 kbps - Костюкевич
Субтитры: Русские, английские

MI

General
Unique ID : 209966672584938752823090389034221129002 (0x9DF61C366CF2A3E993C5457B46D34D2A)
Complete name : G:City.of.the.Living.Dead.BDRip.720p_by_Bathory.mkv
Format : Matroska
Format version : Version 4 / Version 2
File size : 4.24 GiB
Duration : 1h 32mn
Overall bit rate : 6 536 Kbps
Movie name : City.of.the.Living.Dead.1980p.Bluray.AVC.Remux
Encoded date : UTC 2016-02-02 15:14:07
Writing application : mkvmerge v8.8.0 ('Wind at my back') 64bit
Writing library : libebml v1.3.3 + libmatroska v1.4.4
DURATION : 01:31:24.019000000
NUMBER_OF_FRAMES : 863
NUMBER_OF_BYTES : 28915
_STATISTICS_WRITING_APP : mkvmerge v8.8.0 ('Wind at my back') 64bit
_STATISTICS_WRITING_DATE_UTC : 2016-02-02 15:14:07
_STATISTICS_TAGS : BPS DURATION NUMBER_OF_FRAMES NUMBER_OF_BYTES
Video
ID : 1
Format : AVC
Format/Info : Advanced Video Codec
Format profile : High@L4.1
Format settings, CABAC : Yes
Format settings, ReFrames : 9 frames
Codec ID : V_MPEG4/ISO/AVC
Duration : 1h 32mn
Bit rate : 4 934 Kbps
Width : 1 280 pixels
Height : 688 pixels
Display aspect ratio : 1.85:1
Frame rate mode : Constant
Frame rate : 23.976 fps
Color space : YUV
Chroma subsampling : 4:2:0
Bit depth : 8 bits
Scan type : Progressive
Bits/(Pixel*Frame) : 0.234
Stream size : 3.11 GiB (74%)
Writing library : x264 core 148 r2638 7599210
Encoding settings : cabac=1 / ref=9 / deblock=1:-2:-2 / analyse=0x3:0x133 / me=umh / subme=11 / psy=1 / psy_rd=1.05:0.05 / mixed_ref=0 / me_range=32 / chroma_me=1 / trellis=2 / 8x8dct=1 / cqm=0 / deadzone=21,11 / fast_pskip=0 / chroma_qp_offset=-3 / threads=12 / lookahead_threads=3 / sliced_threads=0 / nr=0 / decimate=1 / interlaced=0 / bluray_compat=0 / constrained_intra=0 / bframes=12 / b_pyramid=2 / b_adapt=2 / b_bias=0 / direct=3 / weightb=1 / open_gop=0 / weightp=2 / keyint=240 / keyint_min=23 / scenecut=40 / intra_refresh=0 / rc_lookahead=60 / rc=2pass / mbtree=1 / bitrate=4934 / ratetol=1.0 / qcomp=0.70 / qpmin=0 / qpmax=69 / qpstep=4 / cplxblur=20.0 / qblur=0.5 / vbv_maxrate=62500 / vbv_bufsize=78125 / nal_hrd=none / filler=0 / ip_ratio=1.40 / aq=1:1.00
Default : Yes
Forced : No
Audio #1
ID : 2
Format : AC-3
Format/Info : Audio Coding 3
Mode extension : CM (complete main)
Format settings, Endianness : Big
Codec ID : A_AC3
Duration : 1h 32mn
Bit rate mode : Constant
Bit rate : 384 Kbps
Channel(s) : 6 channels
Channel positions : Front: L C R, Side: L R, LFE
Sampling rate : 48.0 KHz
Bit depth : 16 bits
Compression mode : Lossy
Stream size : 255 MiB (6%)
Title : R5
Language : Russian
Default : Yes
Forced : No
Audio #2
ID : 3
Format : AC-3
Format/Info : Audio Coding 3
Mode extension : CM (complete main)
Format settings, Endianness : Big
Codec ID : A_AC3
Duration : 1h 32mn
Bit rate mode : Constant
Bit rate : 384 Kbps
Channel(s) : 6 channels
Channel positions : Front: L C R, Side: L R, LFE
Sampling rate : 48.0 KHz
Bit depth : 16 bits
Compression mode : Lossy
Stream size : 255 MiB (6%)
Title : Гаврилов
Language : Russian
Default : No
Forced : No
Audio #3
ID : 4
Format : AC-3
Format/Info : Audio Coding 3
Mode extension : CM (complete main)
Format settings, Endianness : Big
Codec ID : A_AC3
Duration : 1h 32mn
Bit rate mode : Constant
Bit rate : 448 Kbps
Channel(s) : 6 channels
Channel positions : Front: L C R, Side: L R, LFE
Sampling rate : 48.0 KHz
Bit depth : 16 bits
Compression mode : Lossy
Stream size : 297 MiB (7%)
Title : Штейн
Language : Russian
Default : No
Forced : No
Audio #4
ID : 5
Format : AC-3
Format/Info : Audio Coding 3
Mode extension : CM (complete main)
Format settings, Endianness : Big
Codec ID : A_AC3
Duration : 1h 32mn
Bit rate mode : Constant
Bit rate : 384 Kbps
Channel(s) : 6 channels
Channel positions : Front: L C R, Side: L R, LFE
Sampling rate : 48.0 KHz
Bit depth : 16 bits
Compression mode : Lossy
Stream size : 255 MiB (6%)
Title : Костюкевич
Language : Russian
Default : No
Forced : No
Text #1
ID : 6
Format : UTF-8
Codec ID : S_TEXT/UTF8
Codec ID/Info : UTF-8 Plain Text
Language : Russian
Default : Yes
Forced : No
Text #2
ID : 7
Format : UTF-8
Codec ID : S_TEXT/UTF8
Codec ID/Info : UTF-8 Plain Text
Title : SDH
Language : English
Default : No
Forced : No

Скриншоты

Автор рипа: Bathory
[Профиль] [ЛС]
Кто просматривает тему:

Форум Тема Автор Размер
Chanson (Шансон) VA - В город пришла весна. Душевный сборник к празднику - 2015, MP3, 256 kbps Magnat 697 MB
Альтернативная история и наука BBC. Древние затерянные города. Исчезнувшая столица фараона / Lost Cities of the Ancients. The Vanished Capital of the Pharaoh (2006) HDTV [H.264/1080i-LQ] KottoSoft 2.43 GB
BBC BBC: Византия - сказания о трёх городах / Byzantium: A Tale of Three Cities [серии 1-3 из 3] (Грэхам Джонстон) [2013 г., Документальный, история, HDTVRip 720p] skorpionN 3.67 GB
National Geographic NG: Исследователь 2.0: Проклятие затерянного города: Легенда о "Городе обезьяньего бога" / Explorer. Legend of the monkey God [сезон 8 эпизод 02] (Graham Townsley) [2015 г., Документальный,... skorpionN 1.44 GB
Viasat History Viasat History: Секреты устройства античных городов / Building the Ancient City [серии 1-2 из 2] (Paul Elston) [2015 г., Документальный, научно-познавательный, история, HDTVRip 720p] skorpionN 3.04 GB
Программы [Разное] Город потерянных душ v1.0 [Android 2.0+, RUS] TorrentFilm 2 MB
Программы [Разное] Чикаго ночной город Живые обои 1.0 [Android 2.3, RUS + ENG] TorrentFilm 9 MB
Детская литература Александр Волков - Волшебник Изумрудного города [Читает Николай Литвинов, 128 kbps] sergej644 103 MB
Показать сообщения:    

Текущее время: Сегодня 14:01

Часовой пояс: GMT



Вы не можете начинать темы
Вы не можете отвечать на сообщения
Вы не можете редактировать свои сообщения
Вы не можете удалять свои сообщения
Вы не можете голосовать в опросах
Вы не можете прикреплять файлы к сообщениям
Вы не можете скачивать файлы