Город, где нет лишь меня / Boku Dake ga Inai Machi / Город, в котором меня нет [01-12 из 12] (2016) BDRip 1080p

 
Автор Сообщение

Russian Mafia ®

Пол:

Стаж: 1 год 8 месяцев

Сообщений: 4253



Награды: 10 (Подробнее)

Mega Seeder 3 (Количество: 1) Top Releaser 5 (Количество: 1) Mega Seeder 5 (Количество: 1)
Торрент-статистика

Создавать темы 14-Авг-2016 17:20

[Цитировать]

Страна: Япония
Год выпуска: 2016 г.
Жанр: мистика, детектив, cверхъестественное
Тип: TV
Продолжительность: 241 мин (4 ч. 1 м.)
Режиссер: Ито Томохико
Студия:
Описание: Фудзинума Сатору - не признанный, 29 летний мангака, подрабатывающий в пиццерии. У него есть неосознанный дар "откатывать" время назад: каждый раз, когда рядом с ним происходит что-то плохое - он невольно возвращается на несколько минут назад, когда вынужден предотвращать беду...
Доп. информация: Все серии в одном видео, без оппенингов, и эндингов (кроме как в начале и в конце всего видео)
Озвучка: MantisFL, двухголосая (муж.+жен.)
Качество: BDRip
Тип релиза: Полухардсаб
Формат видео: AVI
Релиз/Автор рипа:

-----Метеорит Фантазий-----
Файл
Кодек: h.260
Качество: 1080
Видео: 1920x1080, 1149 кбит/с, 23 кадр/с
Звук: Аудио кодек: AC-3
Аудио RUS: 48.0 kHz, 2 ch, 192 kbps
Субтитры: Русские (встроенные перевод надписей); Язык русский; Перевод: Ми Терещенко

Подробные тех. данные

Общее
Полное имя: Город, где нет лишь меня (Boku dake ga Inai Machi) - все серии подряд [1080p, озвучка MantisFL, хардсаб на надписи].avi
Формат: AVI
Формат/Информация: Audio Video Interleave
Профиль формата: OpenDML
Размер файла: 2,39 Гбайт
Продолжительность: 4 ч. 1 м.
Общий поток: 1419 Кбит/сек
TCOD: 0
TCDO: 144802157500
Видео
Идентификатор: 0
Формат: AVC
Формат/Информация: Advanced Video Codec
Профиль формата: High@L4.1
Параметр CABAC формата: Да
Параметр ReFrames формата: 3 кадра
Идентификатор кодека: H264
Продолжительность : 4 ч. 1 м.
Битрейт: 1149 Кбит/сек
Ширина: 1920 пикселей
Высота: 1080 пикселей
Соотношение сторон: 16:9
Частота кадров: 23,976 (24000/1001) кадра/сек
Цветовое пространство: YUV
Субдискретизация насыщенности: 4:2:0
Битовая глубина: 8 бит
Тип развёртки: Прогрессивная
Бит/(Пиксели*Кадры): 0.023
Размер потока : 1,95 Гбайт (82%)
Библиотека кодирования: x264 core 144 r2525bm 40bb568
Настройки программы: cabac=1 / ref=3 / deblock=1:-2:-2 / analyse=0x3:0x113 / me=hex / subme=7 / psy=1 / psy_rd=1.00:0.25 / mixed_ref=1 / me_range=16 / chroma_me=1 / trellis=1 / 8x8dct=1 / cqm=0 / deadzone=6,6 / fast_pskip=1 / chroma_qp_offset=-4 / threads=4 / lookahead_threads=4 / sliced_threads=1 / slices=4 / nr=0 / decimate=0 / interlaced=0 / bluray_compat=0 / constrained_intra=0 / bframes=0 / weightp=2 / keyint=250 / keyint_min=23 / scenecut=40 / intra_refresh=0 / rc=abr / mbtree=0 / bitrate=1149 / ratetol=1.0 / qcomp=0.80 / qpmin=0 / qpmax=69 / qpstep=4 / ip_ratio=1.10 / aq=1:0.50
Аудио
Идентификатор: 1
Формат: AC-3
Формат/Информация: Audio Coding 3
Расширение режима: CM (complete main)
Параметр Endianness формата: Big
Идентификатор кодека: 2000
Продолжительность: 4 ч. 1 м.
Вид битрейта: Постоянный
Битрейт: 192 Кбит/сек
Каналы: 2 канала
Расположение каналов: Front: L R
Частота: 48,0 КГц
Частота кадров: 31,250 кадров/сек (1536 spf)
Метод сжатия: С потерями
Размер потока: 331 Мбайт (14%)
Выравнивание: Соединение по промежуткам
Продолжительность промежутка: 250 мс. (5,99 видеокадров)
Время предзагрузки промежутка: 224 мс.

Список эпизодов

01. Пролетая перед глазами.
02. Ладонь.
03. Синяк.
04. Достижение.
05. Побег.
06. Смерть.
07. Неуправляемый.
08. Спираль.
09. Конец.
10. Радость.
11. Будущее.
12. Сокровище.

Скриншоты


Сэмпл
[Профиль] [ЛС]
Кто просматривает тему:

Форум Тема Автор Размер
Chanson (Шансон) VA - В город пришла весна. Душевный сборник к празднику - 2015, MP3, 256 kbps Magnat 697 MB
Альтернативная история и наука BBC. Древние затерянные города. Исчезнувшая столица фараона / Lost Cities of the Ancients. The Vanished Capital of the Pharaoh (2006) HDTV [H.264/1080i-LQ] KottoSoft 2.43 GB
BBC BBC: Византия - сказания о трёх городах / Byzantium: A Tale of Three Cities [серии 1-3 из 3] (Грэхам Джонстон) [2013 г., Документальный, история, HDTVRip 720p] skorpionN 3.67 GB
National Geographic NG: Исследователь 2.0: Проклятие затерянного города: Легенда о "Городе обезьяньего бога" / Explorer. Legend of the monkey God [сезон 8 эпизод 02] (Graham Townsley) [2015 г., Документальный,... skorpionN 1.44 GB
Viasat History Viasat History: Секреты устройства античных городов / Building the Ancient City [серии 1-2 из 2] (Paul Elston) [2015 г., Документальный, научно-познавательный, история, HDTVRip 720p] skorpionN 3.04 GB
Программы [Разное] Город потерянных душ v1.0 [Android 2.0+, RUS] TorrentFilm 2 MB
Программы [Разное] Чикаго ночной город Живые обои 1.0 [Android 2.3, RUS + ENG] TorrentFilm 9 MB
Детская литература Александр Волков - Волшебник Изумрудного города [Читает Николай Литвинов, 128 kbps] sergej644 103 MB
Показать сообщения:    

Текущее время: Сегодня 14:54

Часовой пояс: GMT



Вы не можете начинать темы
Вы не можете отвечать на сообщения
Вы не можете редактировать свои сообщения
Вы не можете удалять свои сообщения
Вы не можете голосовать в опросах
Вы не можете прикреплять файлы к сообщениям
Вы не можете скачивать файлы