Город воров / The Town (Бен Аффлек / Ben Affleck) [2010, США, триллер, драма, криминал, BDRip-AVC] [Extended Alternate Cut / Расширенная альтернативная версия] VO (Чадов) + Original (Eng) + Sub (Eng)

 
Автор Сообщение

TorrentFilm ®

Пол:

Стаж: 2 года

Сообщений: 7741



Награды: Нет

Торрент-статистика

Создавать темы 10-Янв-2015 00:00

[Цитировать]

Город воров / The Town
Страна: США
Жанр: триллер, драма, криминал
Год выпуска: 2010
Продолжительность: 02:33:26
Перевод: Одноголосый закадровый, М. Чадов | Внимание! Присутствует ненормативная лексика
Cубтитры: английские
Оригинальная аудиодорожка: английский
Режиссер: Бен Аффлек / Ben Affleck
В ролях: Бен Аффлек, Ребекка Холл, Джон Хэмм, Джереми Реннер, Блейк Лайвли, Оуэн Бурк, Титус Уэлливер, Пит Постлетуэйт, Крис Купер
Описание: В Бостоне каждый год происходит более 300 ограблений банков. И большинство профессионалов, специализирующихся в этой области, живут в округе под названием Чарльстон общей площадью одна квадратная миля. Даг МакРэй — один из них. В отличие от большинства, у Дага был шанс на успех, шанс на то, чтобы не идти по криминальному пути своего отца. Однако вместо этого он стал фактическим лидером группы безжалостных грабителей банков, которые гордятся тем, что берут все, что хотят, и выходят сухими из воды...

Доп. информация: Расширенная версия с альтернативной концовкой. Других переводов на неё нет
Исходник: The Town 2010 Extended Alternate Cut 1080p Blu-ray AVC DTS-HD MA 5.1-EbP @ HDBits
Качество видео: BDRip-AVC | | sample
Формат видео: MKV
Видео кодек: x264
Видео: AVC 1152x480 (2.40:1), 23.976 fps, ~3620 Kbps, 0.27 bit/pixel
Аудио #1: Russian AC3 6ch 48kHz 448Kbps | VO Чадов
Аудио #2: English AC3 6ch 48kHz 448Kbps | Original
Формат субтитров: softsub (SRT)
Главы: есть

MediaInfo | x264x264

--[Information] [17.11.2013 8:22:28] x264 [info]: frame I:1610 Avg QP:16.06 size: 87233
--[Information] [17.11.2013 8:22:28] x264 [info]: frame P:43077 Avg QP:19.54 size: 33057
--[Information] [17.11.2013 8:22:28] x264 [info]: frame B:176057 Avg QP:19.96 size: 14778
--[Information] [17.11.2013 8:22:28] x264 [info]: consecutive B-frames: 1.5% 1.8% 5.0% 14.8% 17.6% 40.7% 7.5% 2.1% 2.3% 1.4% 2.1% 0.6% 0.7% 0.6% 0.4% 0.3% 0.5%
--[Information] [17.11.2013 8:22:28] x264 [info]: kb/s:3620.02
General
Complete name : E:\...\The.Town.2010.Extended.Alternate.Cut.BDRip.x264.DD5.1.Rus.AVO.Eng-E76.mkv
Format : Matroska
Format version : Version 2
File size : 4.84 GiB
Duration : 2h 33mn
Overall bit rate : 4 518 Kbps
Movie name : The.Town.2010.Extended.Alternate.Cut.BDRip.x264.DD5.1.Rus.AVO.Eng-E76
Encoded date : UTC 2015-01-09 00:55:13
Writing application : mkvmerge v7.0.0 ('Where We Going') 64bit built on Jun 9 2014 15:16:27
Writing library : libebml v1.3.0 + libmatroska v1.4.1
Attachment : Yes
Video
ID : 1
Format : AVC
Format/Info : Advanced Video Codec
Format profile : High@L4.1
Format settings, CABAC : Yes
Format settings, ReFrames : 12 frames
Codec ID : V_MPEG4/ISO/AVC
Bit rate : 3 620 Kbps
Width : 1 152 pixels
Height : 480 pixels
Display aspect ratio : 2.40:1
Frame rate mode : Constant
Color space : YUV
Chroma subsampling : 4:2:0
Bit depth : 8 bits
Scan type : Progressive
Bits/(Pixel*Frame) : 0.273
Title : The Town (2010) Extended Alternate Cut
Writing library : x264 core 138 r2358kMod 9e941d1
Encoding settings : cabac=1 / ref=12 / deblock=1:-3:-3 / analyse=0x3:0x113 / me=umh / subme=11 / psy=1 / fade_compensate=0.00 / psy_rd=1.00:0.00 / mixed_ref=1 / me_range=48 / chroma_me=1 / trellis=2 / 8x8dct=1 / cqm=0 / deadzone=21,11 / fast_pskip=0 / chroma_qp_offset=-2 / threads=6 / lookahead_threads=1 / sliced_threads=0 / nr=0 / decimate=0 / interlaced=0 / bluray_compat=0 / constrained_intra=0 / bframes=16 / b_pyramid=2 / b_adapt=2 / b_bias=0 / direct=3 / weightb=1 / open_gop=0 / weightp=2 / keyint=240 / keyint_min=23 / scenecut=40 / intra_refresh=0 / rc_lookahead=120 / rc=2pass / mbtree=1 / bitrate=3620 / ratetol=1.0 / qcomp=0.75 / qpmin=0 / qpmax=69 / qpstep=4 / cplxblur=20.0 / qblur=0.5 / vbv_maxrate=50000 / vbv_bufsize=62500 / nal_hrd=none / ip_ratio=1.40 / aq=3:1.00 / zones=215090,220743,q=30
Language : English
Default : Yes
Forced : No
Matrix coefficients : BT.709
Audio #1
ID : 2
Format : AC-3
Format/Info : Audio Coding 3
Mode extension : CM (complete main)
Format settings, Endianness : Big
Codec ID : A_AC3
Duration : 2h 33mn
Bit rate mode : Constant
Bit rate : 448 Kbps
Channel(s) : 6 channels
Channel positions : Front: L C R, Side: L R, LFE
Sampling rate : 48.0 KHz
Bit depth : 16 bits
Compression mode : Lossy
Stream size : 492 MiB (10%)
Title : AVO Chadov
Language : Russian
Default : Yes
Forced : No
Audio #2
ID : 3
Format : AC-3
Format/Info : Audio Coding 3
Mode extension : CM (complete main)
Format settings, Endianness : Big
Codec ID : A_AC3
Duration : 2h 33mn
Bit rate mode : Constant
Bit rate : 448 Kbps
Channel(s) : 6 channels
Channel positions : Front: L C R, Side: L R, LFE
Sampling rate : 48.0 KHz
Bit depth : 16 bits
Compression mode : Lossy
Stream size : 492 MiB (10%)
Title : Original
Language : English
Default : No
Forced : No
Text
ID : 4
Format : UTF-8
Codec ID : S_TEXT/UTF8
Codec ID/Info : UTF-8 Plain Text
Language : English
Default : No
Forced : No
Menu
00:00:00.000 : :Chapter 01
00:10:53.110 : :Chapter 02
...
02:33:26.572 : :Chapter 15

Скриншоты





vs source
=> Новые релизы в AVC | | Заказ рипов в AVC
[Профиль] [ЛС]

Создавать темы 06-Авг-2015 22:48 (спустя 6 месяцев 27 дней)

Топик был перенесен из форума Фильмы до 2014 года в форум Фильмы до 2012 года
sergej644
 

Создавать темы 12-Июн-2016 07:54 (спустя 1 год 5 месяцев)

Топик был перенесен из форума Фильмы 2011 года в форум Фильмы 2010 года
Russian Mafia
 
Кто просматривает тему:

Форум Тема Автор Размер
Chanson (Шансон) VA - В город пришла весна. Душевный сборник к празднику - 2015, MP3, 256 kbps Magnat 697 MB
Альтернативная история и наука BBC. Древние затерянные города. Исчезнувшая столица фараона / Lost Cities of the Ancients. The Vanished Capital of the Pharaoh (2006) HDTV [H.264/1080i-LQ] KottoSoft 2.43 GB
BBC BBC: Византия - сказания о трёх городах / Byzantium: A Tale of Three Cities [серии 1-3 из 3] (Грэхам Джонстон) [2013 г., Документальный, история, HDTVRip 720p] skorpionN 3.67 GB
National Geographic NG: Исследователь 2.0: Проклятие затерянного города: Легенда о "Городе обезьяньего бога" / Explorer. Legend of the monkey God [сезон 8 эпизод 02] (Graham Townsley) [2015 г., Документальный,... skorpionN 1.44 GB
Viasat History Viasat History: Секреты устройства античных городов / Building the Ancient City [серии 1-2 из 2] (Paul Elston) [2015 г., Документальный, научно-познавательный, история, HDTVRip 720p] skorpionN 3.04 GB
Программы [Разное] Город потерянных душ v1.0 [Android 2.0+, RUS] TorrentFilm 2 MB
Программы [Разное] Чикаго ночной город Живые обои 1.0 [Android 2.3, RUS + ENG] TorrentFilm 9 MB
Детская литература Александр Волков - Волшебник Изумрудного города [Читает Николай Литвинов, 128 kbps] sergej644 103 MB
Показать сообщения:    

Текущее время: Сегодня 19:32

Часовой пояс: GMT



Вы не можете начинать темы
Вы не можете отвечать на сообщения
Вы не можете редактировать свои сообщения
Вы не можете удалять свои сообщения
Вы не можете голосовать в опросах
Вы не можете прикреплять файлы к сообщениям
Вы не можете скачивать файлы